  0
SECTION
  2
HEADER
  9
$ACADVER
  1
AC1015
  9
$ACADMAINTVER
 70
     6
  9
$DWGCODEPAGE
  3
ANSI_1252
  9
$INSBASE
 10
0.0
 20
0.0
 30
0.0
  9
$EXTMIN
 10
0.0
 20
0.0
 30
0.0
  9
$EXTMAX
 10
297.0000000000001
 20
210.0000000000001
 30
0.0
  9
$LIMMIN
 10
0.0
 20
0.0
  9
$LIMMAX
 10
12.0
 20
9.0
  9
$ORTHOMODE
 70
     0
  9
$REGENMODE
 70
     1
  9
$FILLMODE
 70
     1
  9
$QTEXTMODE
 70
     0
  9
$MIRRTEXT
 70
     1
  9
$LTSCALE
 40
1.0
  9
$ATTMODE
 70
     1
  9
$TEXTSIZE
 40
0.2
  9
$TRACEWID
 40
0.05
  9
$TEXTSTYLE
  7
Standard
  9
$CLAYER
  8
0
  9
$CELTYPE
  6
ByLayer
  9
$CECOLOR
 62
   256
  9
$CELTSCALE
 40
1.0
  9
$DISPSILH
 70
     0
  9
$DIMSCALE
 40
1.0
  9
$DIMASZ
 40
0.18
  9
$DIMEXO
 40
0.0625
  9
$DIMDLI
 40
0.38
  9
$DIMRND
 40
0.0
  9
$DIMDLE
 40
0.0
  9
$DIMEXE
 40
0.18
  9
$DIMTP
 40
0.0
  9
$DIMTM
 40
0.0
  9
$DIMTXT
 40
0.18
  9
$DIMCEN
 40
0.09
  9
$DIMTSZ
 40
0.0
  9
$DIMTOL
 70
     0
  9
$DIMLIM
 70
     0
  9
$DIMTIH
 70
     1
  9
$DIMTOH
 70
     1
  9
$DIMSE1
 70
     0
  9
$DIMSE2
 70
     0
  9
$DIMTAD
 70
     0
  9
$DIMZIN
 70
     0
  9
$DIMBLK
  1

  9
$DIMASO
 70
     1
  9
$DIMSHO
 70
     1
  9
$DIMPOST
  1

  9
$DIMAPOST
  1

  9
$DIMALT
 70
     0
  9
$DIMALTD
 70
     2
  9
$DIMALTF
 40
25.4
  9
$DIMLFAC
 40
1.0
  9
$DIMTOFL
 70
     0
  9
$DIMTVP
 40
0.0
  9
$DIMTIX
 70
     0
  9
$DIMSOXD
 70
     0
  9
$DIMSAH
 70
     0
  9
$DIMBLK1
  1

  9
$DIMBLK2
  1

  9
$DIMSTYLE
  2
Standard
  9
$DIMCLRD
 70
     0
  9
$DIMCLRE
 70
     0
  9
$DIMCLRT
 70
     0
  9
$DIMTFAC
 40
1.0
  9
$DIMGAP
 40
0.09
  9
$DIMJUST
 70
     0
  9
$DIMSD1
 70
     0
  9
$DIMSD2
 70
     0
  9
$DIMTOLJ
 70
     1
  9
$DIMTZIN
 70
     0
  9
$DIMALTZ
 70
     0
  9
$DIMALTTZ
 70
     0
  9
$DIMUPT
 70
     0
  9
$DIMDEC
 70
     4
  9
$DIMTDEC
 70
     4
  9
$DIMALTU
 70
     2
  9
$DIMALTTD
 70
     2
  9
$DIMTXSTY
  7
Standard
  9
$DIMAUNIT
 70
     0
  9
$DIMADEC
 70
     0
  9
$DIMALTRND
 40
0.0
  9
$DIMAZIN
 70
     0
  9
$DIMDSEP
 70
    46
  9
$DIMATFIT
 70
     3
  9
$DIMFRAC
 70
     0
  9
$DIMLDRBLK
  1

  9
$DIMLUNIT
 70
     2
  9
$DIMLWD
 70
    -2
  9
$DIMLWE
 70
    -2
  9
$DIMTMOVE
 70
     0
  9
$LUNITS
 70
     2
  9
$LUPREC
 70
     4
  9
$SKETCHINC
 40
0.1
  9
$FILLETRAD
 40
0.5
  9
$AUNITS
 70
     0
  9
$AUPREC
 70
     0
  9
$MENU
  1
.
  9
$ELEVATION
 40
0.0
  9
$PELEVATION
 40
0.0
  9
$THICKNESS
 40
0.0
  9
$LIMCHECK
 70
     0
  9
$CHAMFERA
 40
0.5
  9
$CHAMFERB
 40
0.5
  9
$CHAMFERC
 40
1.0
  9
$CHAMFERD
 40
0.0
  9
$SKPOLY
 70
     0
  9
$TDCREATE
 40
2457079.39314757
  9
$TDUCREATE
 40
2457079.351480903
  9
$TDUPDATE
 40
2457079.393147754
  9
$TDUUPDATE
 40
2457079.351481088
  9
$TDINDWG
 40
0.0000000116
  9
$TDUSRTIMER
 40
0.0000000116
  9
$USRTIMER
 70
     1
  9
$ANGBASE
 50
0.0
  9
$ANGDIR
 70
     0
  9
$PDMODE
 70
     0
  9
$PDSIZE
 40
0.0
  9
$PLINEWID
 40
0.0
  9
$SPLFRAME
 70
     0
  9
$SPLINETYPE
 70
     6
  9
$SPLINESEGS
 70
     8
  9
$HANDSEED
  5
1B6
  9
$SURFTAB1
 70
     6
  9
$SURFTAB2
 70
     6
  9
$SURFTYPE
 70
     6
  9
$SURFU
 70
     6
  9
$SURFV
 70
     6
  9
$UCSBASE
  2

  9
$UCSNAME
  2

  9
$UCSORG
 10
0.0
 20
0.0
 30
0.0
  9
$UCSXDIR
 10
1.0
 20
0.0
 30
0.0
  9
$UCSYDIR
 10
0.0
 20
1.0
 30
0.0
  9
$UCSORTHOREF
  2

  9
$UCSORTHOVIEW
 70
     0
  9
$UCSORGTOP
 10
0.0
 20
0.0
 30
0.0
  9
$UCSORGBOTTOM
 10
0.0
 20
0.0
 30
0.0
  9
$UCSORGLEFT
 10
0.0
 20
0.0
 30
0.0
  9
$UCSORGRIGHT
 10
0.0
 20
0.0
 30
0.0
  9
$UCSORGFRONT
 10
0.0
 20
0.0
 30
0.0
  9
$UCSORGBACK
 10
0.0
 20
0.0
 30
0.0
  9
$PUCSBASE
  2

  9
$PUCSNAME
  2

  9
$PUCSORG
 10
0.0
 20
0.0
 30
0.0
  9
$PUCSXDIR
 10
1.0
 20
0.0
 30
0.0
  9
$PUCSYDIR
 10
0.0
 20
1.0
 30
0.0
  9
$PUCSORTHOREF
  2

  9
$PUCSORTHOVIEW
 70
     0
  9
$PUCSORGTOP
 10
0.0
 20
0.0
 30
0.0
  9
$PUCSORGBOTTOM
 10
0.0
 20
0.0
 30
0.0
  9
$PUCSORGLEFT
 10
0.0
 20
0.0
 30
0.0
  9
$PUCSORGRIGHT
 10
0.0
 20
0.0
 30
0.0
  9
$PUCSORGFRONT
 10
0.0
 20
0.0
 30
0.0
  9
$PUCSORGBACK
 10
0.0
 20
0.0
 30
0.0
  9
$USERI1
 70
     0
  9
$USERI2
 70
     0
  9
$USERI3
 70
     0
  9
$USERI4
 70
     0
  9
$USERI5
 70
     0
  9
$USERR1
 40
18.1
  9
$USERR2
 40
0.0
  9
$USERR3
 40
0.0
  9
$USERR4
 40
0.0
  9
$USERR5
 40
0.0
  9
$WORLDVIEW
 70
     1
  9
$SHADEDGE
 70
     3
  9
$SHADEDIF
 70
    70
  9
$TILEMODE
 70
     1
  9
$MAXACTVP
 70
    64
  9
$PINSBASE
 10
0.0
 20
0.0
 30
0.0
  9
$PLIMCHECK
 70
     0
  9
$PEXTMIN
 10
1.00000000000000E+20
 20
1.00000000000000E+20
 30
1.00000000000000E+20
  9
$PEXTMAX
 10
-1.00000000000000E+20
 20
-1.00000000000000E+20
 30
-1.00000000000000E+20
  9
$PLIMMIN
 10
0.0
 20
0.0
  9
$PLIMMAX
 10
12.0
 20
9.0
  9
$UNITMODE
 70
     0
  9
$VISRETAIN
 70
     1
  9
$PLINEGEN
 70
     0
  9
$PSLTSCALE
 70
     1
  9
$TREEDEPTH
 70
  3020
  9
$CMLSTYLE
  2
Standard
  9
$CMLJUST
 70
     0
  9
$CMLSCALE
 40
1.0
  9
$PROXYGRAPHICS
 70
     1
  9
$MEASUREMENT
 70
     1
  9
$CELWEIGHT
370
    -1
  9
$ENDCAPS
280
     0
  9
$JOINSTYLE
280
     0
  9
$LWDISPLAY
290
     0
  9
$INSUNITS
 70
     4
  9
$HYPERLINKBASE
  1

  9
$STYLESHEET
  1

  9
$XEDIT
290
     1
  9
$CEPSNTYPE
380
     0
  9
$PSTYLEMODE
290
     1
  9
$FINGERPRINTGUID
  2
{E2D1AB98-F3D2-48B7-80D1-FB944C840C69}
  9
$VERSIONGUID
  2
{FAEB1C32-E019-11D5-929B-00C0DF256EC4}
  9
$EXTNAMES
290
     1
  9
$PSVPSCALE
 40
0.0
  9
$OLESTARTUP
290
     0
  0
ENDSEC
  0
SECTION
  2
CLASSES
  0
CLASS
  1
ACDBDICTIONARYWDFLT
  2
AcDbDictionaryWithDefault
  3
ObjectDBX Classes
 90
        0
280
     0
281
     0
  0
CLASS
  1
VISUALSTYLE
  2
AcDbVisualStyle
  3
ObjectDBX Classes
 90
     4095
280
     0
281
     0
  0
CLASS
  1
MATERIAL
  2
AcDbMaterial
  3
ObjectDBX Classes
 90
     1153
280
     0
281
     0
  0
CLASS
  1
DICTIONARYVAR
  2
AcDbDictionaryVar
  3
ObjectDBX Classes
 90
        0
280
     0
281
     0
  0
CLASS
  1
ACDBPLACEHOLDER
  2
AcDbPlaceHolder
  3
ObjectDBX Classes
 90
        0
280
     0
281
     0
  0
CLASS
  1
LAYOUT
  2
AcDbLayout
  3
ObjectDBX Classes
 90
        0
280
     0
281
     0
  0
ENDSEC
  0
SECTION
  2
TABLES
  0
TABLE
  2
VPORT
  5
8
330
0
100
AcDbSymbolTable
 70
     1
  0
VPORT
  5
29
330
8
100
AcDbSymbolTableRecord
100
AcDbViewportTableRecord
  2
*Active
 70
     0
 10
0.0
 20
0.0
 11
1.0
 21
1.0
 12
148.5000000000001
 22
105.0000000000001
 13
0.0
 23
0.0
 14
0.5
 24
0.5
 15
0.5
 25
0.5
 16
0.0
 26
0.0
 36
1.0
 17
0.0
 27
0.0
 37
0.0
 40
231.0000000000001
 41
1.60267857142857
 42
50.0
 43
0.0
 44
0.0
 50
0.0
 51
0.0
 71
     0
 72
   100
 73
     1
 74
     3
 75
     0
 76
     0
 77
     0
 78
     0
281
     0
 65
     1
110
0.0
120
0.0
130
0.0
111
1.0
121
0.0
131
0.0
112
0.0
122
1.0
132
0.0
 79
     0
146
0.0
  0
ENDTAB
  0
TABLE
  2
LTYPE
  5
5
330
0
100
AcDbSymbolTable
 70
     8
  0
LTYPE
  5
14
330
5
100
AcDbSymbolTableRecord
100
AcDbLinetypeTableRecord
  2
ByBlock
 70
     0
  3

 72
    65
 73
     0
 40
0.0
  0
LTYPE
  5
15
330
5
100
AcDbSymbolTableRecord
100
AcDbLinetypeTableRecord
  2
ByLayer
 70
     0
  3

 72
    65
 73
     0
 40
0.0
  0
LTYPE
  5
16
330
5
100
AcDbSymbolTableRecord
100
AcDbLinetypeTableRecord
  2
Continuous
 70
     0
  3
Solid line
 72
    65
 73
     0
 40
0.0
  0
LTYPE
  5
3F
330
5
100
AcDbSymbolTableRecord
100
AcDbLinetypeTableRecord
  2
DASHED
 70
     0
  3
Dashed
 72
    65
 73
     2
 40
15.0
 49
7.0
 74
     0
 49
-8.0
 74
     0
  0
LTYPE
  5
40
330
5
100
AcDbSymbolTableRecord
100
AcDbLinetypeTableRecord
  2
DOTTED
 70
     0
  3
Dotted
 72
    65
 73
     2
 40
1.0
 49
0.0
 74
     0
 49
-1.0
 74
     0
  0
LTYPE
  5
41
330
5
100
AcDbSymbolTableRecord
100
AcDbLinetypeTableRecord
  2
DOT_CENTER
 70
     0
  3
Dot_Center
 72
    65
 73
     4
 40
14.0
 49
12.0
 74
     0
 49
-1.0
 74
     0
 49
0.0
 74
     0
 49
-1.0
 74
     0
  0
LTYPE
  5
42
330
5
100
AcDbSymbolTableRecord
100
AcDbLinetypeTableRecord
  2
LONG_DASHED
 70
     0
  3
Long_Dashed
 72
    65
 73
     2
 40
15.0
 49
10.0
 74
     0
 49
-5.0
 74
     0
  0
LTYPE
  5
43
330
5
100
AcDbSymbolTableRecord
100
AcDbLinetypeTableRecord
  2
DASH_CENTER
 70
     0
  3
Dash_Center
 72
    65
 73
     4
 40
14.0
 49
11.0
 74
     0
 49
-1.0
 74
     0
 49
1.0
 74
     0
 49
-1.0
 74
     0
  0
LTYPE
  5
44
330
5
100
AcDbSymbolTableRecord
100
AcDbLinetypeTableRecord
  2
PHANTOM
 70
     0
  3
Phantom
 72
    65
 73
     6
 40
13.0
 49
10.0
 74
     0
 49
-1.0
 74
     0
 49
0.0
 74
     0
 49
-1.0
 74
     0
 49
0.0
 74
     0
 49
-1.0
 74
     0
  0
LTYPE
  5
45
330
5
100
AcDbSymbolTableRecord
100
AcDbLinetypeTableRecord
  2
CENTER_DASH_DASH
 70
     0
  3
Center_Dash_Dash
 72
    65
 73
     6
 40
14.0
 49
9.0
 74
     0
 49
-1.0
 74
     0
 49
1.0
 74
     0
 49
-1.0
 74
     0
 49
1.0
 74
     0
 49
-1.0
 74
     0
  0
ENDTAB
  0
TABLE
  2
LAYER
  5
2
330
0
100
AcDbSymbolTable
 70
     2
  0
LAYER
  5
10
330
2
100
AcDbSymbolTableRecord
100
AcDbLayerTableRecord
  2
0
 70
     0
 62
     7
  6
Continuous
370
    -3
390
F
  0
LAYER
  5
46
330
2
100
AcDbSymbolTableRecord
100
AcDbLayerTableRecord
  2
1
 70
     0
 62
     7
  6
Continuous
370
    -3
390
F
  0
ENDTAB
  0
TABLE
  2
STYLE
  5
3
330
0
100
AcDbSymbolTable
 70
     4
  0
STYLE
  5
11
330
3
100
AcDbSymbolTableRecord
100
AcDbTextStyleTableRecord
  2
Standard
 70
     0
 40
0.0
 41
1.0
 50
0.0
 71
     0
 42
0.2
  3
txt
  4

  0
STYLE
  5
9B
330
3
100
AcDbSymbolTableRecord
100
AcDbTextStyleTableRecord
  2
CONVERTER_11
 70
     0
 40
0.0
 41
1.2
 50
0.0
 71
     0
 42
0.2
  3
ARIAL.TTF
  4

  0
STYLE
  5
A0
330
3
100
AcDbSymbolTableRecord
100
AcDbTextStyleTableRecord
  2
CONVERTER_12
 70
     0
 40
0.0
 41
1.38
 50
0.0
 71
     0
 42
0.2
  3
ARIAL.TTF
  4

  0
STYLE
  5
150
330
3
100
AcDbSymbolTableRecord
100
AcDbTextStyleTableRecord
  2
CONVERTER_13
 70
     0
 40
0.0
 41
0.95
 50
0.0
 71
     0
 42
0.2
  3
simplex.shx
  4

  0
ENDTAB
  0
TABLE
  2
VIEW
  5
6
330
0
100
AcDbSymbolTable
 70
     0
  0
ENDTAB
  0
TABLE
  2
UCS
  5
7
330
0
100
AcDbSymbolTable
 70
     0
  0
ENDTAB
  0
TABLE
  2
APPID
  5
9
330
0
100
AcDbSymbolTable
 70
     1
  0
APPID
  5
12
330
9
100
AcDbSymbolTableRecord
100
AcDbRegAppTableRecord
  2
ACAD
 70
     0
  0
ENDTAB
  0
TABLE
  2
DIMSTYLE
  5
A
330
0
100
AcDbSymbolTable
 70
     6
100
AcDbDimStyleTable
  0
DIMSTYLE
105
27
330
A
100
AcDbSymbolTableRecord
100
AcDbDimStyleTableRecord
  2
Standard
 70
     0
178
     0
340
11
  0
DIMSTYLE
105
154
102
{ACAD_REACTORS
330
155
102
}
330
A
100
AcDbSymbolTableRecord
100
AcDbDimStyleTableRecord
  2
ME10_DIM_10
 70
     0
 41
3.0
 42
0.5
 44
1.0
 73
     0
 74
     0
 77
     1
 78
     8
140
3.0
147
2.0
172
     1
173
     1
174
     1
175
     1
176
     7
177
     7
271
     2
178
     7
271
     2
340
150
  0
DIMSTYLE
105
15F
102
{ACAD_REACTORS
330
160
102
}
330
A
100
AcDbSymbolTableRecord
100
AcDbDimStyleTableRecord
  2
ME10_DIM_11
 70
     0
 41
3.0
 42
0.5
 44
1.0
 73
     0
 74
     0
 77
     1
 78
     8
140
3.0
147
2.0
172
     1
173
     1
174
     1
175
     1
176
     7
177
     7
271
     2
178
     7
271
     2
340
150
  0
DIMSTYLE
105
16A
102
{ACAD_REACTORS
330
16B
102
}
330
A
100
AcDbSymbolTableRecord
100
AcDbDimStyleTableRecord
  2
ME10_DIM_12
 70
     0
 41
3.0
 42
0.5
 44
1.0
 73
     0
 74
     0
 77
     1
 78
     8
140
3.0
147
2.0
172
     1
173
     1
174
     1
175
     1
176
     7
177
     7
271
     2
178
     7
271
     2
340
150
  0
DIMSTYLE
105
175
102
{ACAD_REACTORS
330
176
102
}
330
A
100
AcDbSymbolTableRecord
100
AcDbDimStyleTableRecord
  2
ME10_DIM_13
 70
     0
 41
3.0
 42
0.5
 44
1.0
 73
     0
 74
     0
 77
     1
 78
     8
140
3.0
147
2.0
172
     1
173
     1
174
     1
175
     1
176
     7
177
     7
271
     2
178
     7
271
     2
340
150
  0
DIMSTYLE
105
180
102
{ACAD_REACTORS
330
181
102
}
330
A
100
AcDbSymbolTableRecord
100
AcDbDimStyleTableRecord
  2
ME10_DIM_14
 70
     0
 41
3.0
 42
0.5
 44
1.0
 73
     0
 74
     0
 77
     1
 78
     8
140
3.0
147
2.0
172
     1
173
     1
174
     1
175
     1
176
     7
177
     7
271
     2
178
     7
271
     2
340
150
  0
ENDTAB
  0
TABLE
  2
BLOCK_RECORD
  5
1
330
0
100
AcDbSymbolTable
 70
     9
  0
BLOCK_RECORD
  5
1F
330
1
100
AcDbSymbolTableRecord
100
AcDbBlockTableRecord
  2
*Model_Space
340
22
  0
BLOCK_RECORD
  5
1B
330
1
100
AcDbSymbolTableRecord
100
AcDbBlockTableRecord
  2
*Paper_Space
340
1E
  0
BLOCK_RECORD
  5
23
330
1
100
AcDbSymbolTableRecord
100
AcDbBlockTableRecord
  2
*Paper_Space0
340
26
  0
BLOCK_RECORD
  5
47
330
1
100
AcDbSymbolTableRecord
100
AcDbBlockTableRecord
  2
_formato_A4
340
0
102
{BLKREFS
331
4B
102
}
  0
BLOCK_RECORD
  5
4A
330
1
100
AcDbSymbolTableRecord
100
AcDbBlockTableRecord
  2
A4_oriz
340
0
102
{BLKREFS
331
4E
102
}
  0
BLOCK_RECORD
  5
14A
330
1
100
AcDbSymbolTableRecord
100
AcDbBlockTableRecord
  2
*D3
340
0
  0
BLOCK_RECORD
  5
156
330
1
100
AcDbSymbolTableRecord
100
AcDbBlockTableRecord
  2
*D4
340
0
  0
BLOCK_RECORD
  5
161
330
1
100
AcDbSymbolTableRecord
100
AcDbBlockTableRecord
  2
*D5
340
0
  0
BLOCK_RECORD
  5
16C
330
1
100
AcDbSymbolTableRecord
100
AcDbBlockTableRecord
  2
*D6
340
0
  0
BLOCK_RECORD
  5
177
330
1
100
AcDbSymbolTableRecord
100
AcDbBlockTableRecord
  2
*D7
340
0
  0
BLOCK_RECORD
  5
182
330
1
100
AcDbSymbolTableRecord
100
AcDbBlockTableRecord
  2
*D8
340
0
102
{BLKREFS
331
18A
102
}
  0
ENDTAB
  0
ENDSEC
  0
SECTION
  2
BLOCKS
  0
BLOCK
  5
20
330
1F
100
AcDbEntity
  8
0
100
AcDbBlockBegin
  2
*Model_Space
 70
     0
 10
0.0
 20
0.0
 30
0.0
  3
*Model_Space
  1

  0
ENDBLK
  5
21
330
1F
100
AcDbEntity
  8
0
100
AcDbBlockEnd
  0
BLOCK
  5
1C
330
1B
100
AcDbEntity
 67
     1
  8
0
100
AcDbBlockBegin
  2
*Paper_Space
 70
     0
 10
0.0
 20
0.0
 30
0.0
  3
*Paper_Space
  1

  0
ENDBLK
  5
1D
330
1B
100
AcDbEntity
 67
     1
  8
0
100
AcDbBlockEnd
  0
BLOCK
  5
24
330
23
100
AcDbEntity
  8
0
100
AcDbBlockBegin
  2
*Paper_Space0
 70
     0
 10
0.0
 20
0.0
 30
0.0
  3
*Paper_Space0
  1

  0
ENDBLK
  5
25
330
23
100
AcDbEntity
  8
0
100
AcDbBlockEnd
  0
BLOCK
  5
48
330
47
100
AcDbEntity
  8
0
100
AcDbBlockBegin
  2
_formato_A4
 70
     0
 10
297.0000000000001
 20
0.0
 30
0.0
  3
_formato_A4
  1

  0
LINE
  5
4F
330
47
100
AcDbEntity
  8
1
  6
Continuous
 62
     7
100
AcDbLine
 10
108.0000000000001
 20
4.99999999999989
 30
0.0
 11
108.0000000000001
 21
40.0
 31
0.0
  0
LINE
  5
50
330
47
100
AcDbEntity
  8
1
  6
Continuous
 62
     7
100
AcDbLine
 10
108.0000000000001
 20
20.0
 30
0.0
 11
292.0000000000001
 21
20.0
 31
0.0
  0
LINE
  5
51
330
47
100
AcDbEntity
  8
1
  6
Continuous
 62
     7
100
AcDbLine
 10
4.99999999999989
 20
189.0
 30
0.0
 11
4.99999999999989
 21
5.0
 31
0.0
  0
LINE
  5
52
330
47
100
AcDbEntity
  8
1
  6
Continuous
 62
     7
100
AcDbLine
 10
133.0000000000002
 20
35.0
 30
0.0
 11
133.0000000000002
 21
40.0
 31
0.0
  0
LINE
  5
53
330
47
100
AcDbEntity
  8
1
  6
Continuous
 62
     7
100
AcDbLine
 10
115.0000000000001
 20
35.0
 30
0.0
 11
115.0000000000001
 21
40.0
 31
0.0
  0
LINE
  5
54
330
47
100
AcDbEntity
  8
1
  6
Continuous
 62
     7
100
AcDbLine
 10
108.0000000000001
 20
40.0
 30
0.0
 11
292.0000000000001
 21
40.0
 31
0.0
  0
LINE
  5
55
330
47
100
AcDbEntity
  8
1
  6
Continuous
 62
     7
100
AcDbLine
 10
133.0000000000002
 20
30.0
 30
0.0
 11
133.0000000000002
 21
35.0
 31
0.0
  0
LINE
  5
56
330
47
100
AcDbEntity
  8
1
  6
Continuous
 62
     7
100
AcDbLine
 10
115.0000000000001
 20
30.0
 30
0.0
 11
115.0000000000001
 21
35.0
 31
0.0
  0
LINE
  5
57
330
47
100
AcDbEntity
  8
1
  6
Continuous
 62
     7
100
AcDbLine
 10
108.0000000000001
 20
35.0
 30
0.0
 11
292.0000000000001
 21
35.0
 31
0.0
  0
LINE
  5
58
330
47
100
AcDbEntity
  8
1
  6
Continuous
 62
     7
100
AcDbLine
 10
133.0000000000002
 20
25.0
 30
0.0
 11
133.0000000000002
 21
30.0
 31
0.0
  0
LINE
  5
59
330
47
100
AcDbEntity
  8
1
  6
Continuous
 62
     7
100
AcDbLine
 10
115.0000000000001
 20
25.0
 30
0.0
 11
115.0000000000001
 21
30.0
 31
0.0
  0
LINE
  5
5A
330
47
100
AcDbEntity
  8
1
  6
Continuous
 62
     7
100
AcDbLine
 10
108.0000000000001
 20
30.0
 30
0.0
 11
292.0000000000001
 21
30.0
 31
0.0
  0
LINE
  5
5B
330
47
100
AcDbEntity
  8
1
  6
Continuous
 62
     7
100
AcDbLine
 10
133.0000000000002
 20
20.0
 30
0.0
 11
133.0000000000002
 21
25.0
 31
0.0
  0
LINE
  5
5C
330
47
100
AcDbEntity
  8
1
  6
Continuous
 62
     7
100
AcDbLine
 10
115.0000000000001
 20
20.0
 30
0.0
 11
115.0000000000001
 21
25.0
 31
0.0
  0
LINE
  5
5D
330
47
100
AcDbEntity
  8
1
  6
Continuous
 62
     7
100
AcDbLine
 10
108.0000000000001
 20
25.0
 30
0.0
 11
292.0000000000001
 21
25.0
 31
0.0
  0
LINE
  5
5E
102
{ACAD_REACTORS
330
A6
102
}
330
47
100
AcDbEntity
  8
1
  6
Continuous
 62
     7
100
AcDbLine
 10
282.8428748399059
 20
10.55800208038033
 30
0.0
 11
281.5095415065727
 21
9.78877131114973
 31
0.0
  0
LINE
  5
5F
102
{ACAD_REACTORS
330
A6
102
}
330
47
100
AcDbEntity
  8
1
  6
Continuous
 62
     7
100
AcDbLine
 10
281.6763006887428
 20
10.65463653264794
 30
0.0
 11
282.5097265375796
 21
11.13545913774624
 31
0.0
  0
LINE
  5
60
102
{ACAD_REACTORS
330
A6
102
}
330
47
100
AcDbEntity
  8
1
  6
Continuous
 62
     7
100
AcDbLine
 10
281.6763006887428
 20
12.16666666666663
 30
0.0
 11
281.6763006887428
 21
10.65463653264794
 31
0.0
  0
LINE
  5
61
102
{ACAD_REACTORS
330
A6
102
}
330
47
100
AcDbEntity
  8
1
  6
Continuous
 62
     7
100
AcDbLine
 10
282.6763006887428
 20
12.16666666666663
 30
0.0
 11
281.6763006887428
 21
12.16666666666663
 31
0.0
  0
LINE
  5
62
102
{ACAD_REACTORS
330
A6
102
}
330
47
100
AcDbEntity
  8
1
  6
Continuous
 62
     7
100
AcDbLine
 10
281.6763006887428
 20
12.83333333333326
 30
0.0
 11
282.6763006887428
 21
12.83333333333326
 31
0.0
  0
LINE
  5
63
102
{ACAD_REACTORS
330
A6
102
}
330
47
100
AcDbEntity
  8
1
  6
Continuous
 62
     7
100
AcDbLine
 10
281.6763006887428
 20
14.34536346735195
 30
0.0
 11
281.6763006887428
 21
12.83333333333326
 31
0.0
  0
LINE
  5
64
102
{ACAD_REACTORS
330
A6
102
}
330
47
100
AcDbEntity
  8
1
  6
Continuous
 62
     7
100
AcDbLine
 10
282.5097265375796
 20
13.86454086225376
 30
0.0
 11
281.6763006887428
 21
14.34536346735195
 31
0.0
  0
LINE
  5
65
102
{ACAD_REACTORS
330
A6
102
}
330
47
100
AcDbEntity
  8
1
  6
Continuous
 62
     7
100
AcDbLine
 10
281.5095415065727
 20
15.21122868885027
 30
0.0
 11
282.8428748399059
 21
14.44199791961944
 31
0.0
  0
LINE
  5
66
102
{ACAD_REACTORS
330
A7
102
}
330
47
100
AcDbEntity
  8
1
  6
Continuous
 62
     7
100
AcDbLine
 10
274.3429673554094
 20
10.84673060906323
 30
0.0
 11
274.3429673554094
 21
14.15326939093666
 31
0.0
  0
LINE
  5
67
102
{ACAD_REACTORS
330
A7
102
}
330
47
100
AcDbEntity
  8
1
  6
Continuous
 62
     7
100
AcDbLine
 10
275.0096340220761
 20
11.0392519172633
 30
0.0
 11
275.0096340220761
 21
10.84673060906323
 31
0.0
  0
LINE
  5
68
102
{ACAD_REACTORS
330
A7
102
}
330
47
100
AcDbEntity
  8
1
  6
Continuous
 62
     7
100
AcDbLine
 10
275.0096340220761
 20
14.15326939093666
 30
0.0
 11
275.0096340220761
 21
11.0392519172633
 31
0.0
  0
LINE
  5
69
102
{ACAD_REACTORS
330
A8
102
}
330
47
100
AcDbEntity
  8
1
  6
Continuous
 62
     7
100
AcDbLine
 10
278.1763932042462
 20
8.44261746499581
 30
0.0
 11
276.0098190530831
 21
9.69256409066691
 31
0.0
  0
LINE
  5
6A
102
{ACAD_REACTORS
330
A8
102
}
330
47
100
AcDbEntity
  8
1
  6
Continuous
 62
     7
100
AcDbLine
 10
276.3429673554094
 20
10.2700211480327
 30
0.0
 11
278.5095415065727
 21
9.0200745223616
 31
0.0
  0
LINE
  5
6B
102
{ACAD_REACTORS
330
A8
102
}
330
47
100
AcDbEntity
  8
1
  6
Continuous
 62
     7
100
AcDbLine
 10
276.3429673554094
 20
14.92250016016737
 30
0.0
 11
276.3429673554094
 21
10.2700211480327
 31
0.0
  0
LINE
  5
6C
102
{ACAD_REACTORS
330
A8
102
}
330
47
100
AcDbEntity
  8
1
  6
Continuous
 62
     7
100
AcDbLine
 10
275.6763006887428
 20
10.27002114803258
 30
0.0
 11
275.6763006887428
 21
14.92250016016737
 31
0.0
  0
LINE
  5
6D
102
{ACAD_REACTORS
330
A9
102
}
330
47
100
AcDbEntity
  8
1
  6
Continuous
 62
     7
100
AcDbLine
 10
279.8485336717861
 20
15.86370041827229
 30
0.0
 11
278.6763006887428
 21
13.83333333333326
 31
0.0
  0
LINE
  5
6E
102
{ACAD_REACTORS
330
A9
102
}
330
47
100
AcDbEntity
  8
1
  6
Continuous
 62
     7
100
AcDbLine
 10
280.3429673554094
 20
9.3082690706018
 30
0.0
 11
280.3429673554094
 21
15.73121731203457
 31
0.0
  0
LINE
  5
6F
102
{ACAD_REACTORS
330
A9
102
}
330
47
100
AcDbEntity
  8
1
  6
Continuous
 62
     7
100
AcDbLine
 10
279.6763006887428
 20
12.5
 30
0.0
 11
279.6763006887428
 21
9.3082690706018
 31
0.0
  0
LINE
  5
70
102
{ACAD_REACTORS
330
A9
102
}
330
47
100
AcDbEntity
  8
1
  6
Continuous
 62
     7
100
AcDbLine
 10
277.6763006887428
 20
10.84758507263291
 30
0.0
 11
277.6763006887428
 21
12.5
 31
0.0
  0
LINE
  5
71
102
{ACAD_REACTORS
330
A9
102
}
330
47
100
AcDbEntity
  8
1
  6
Continuous
 62
     7
100
AcDbLine
 10
277.0096340220761
 20
12.5
 30
0.0
 11
277.0096340220761
 21
10.84758507263291
 31
0.0
  0
LINE
  5
72
102
{ACAD_REACTORS
330
A9
102
}
330
47
100
AcDbEntity
  8
1
  6
Continuous
 62
     7
100
AcDbLine
 10
277.5040677056995
 20
15.86370041827229
 30
0.0
 11
278.6763006887428
 21
13.83333333333326
 31
0.0
  0
LINE
  5
73
102
{ACAD_REACTORS
330
A9
102
}
330
47
100
AcDbEntity
  8
1
  6
Continuous
 62
     7
100
AcDbLine
 10
277.0096340220761
 20
12.5
 30
0.0
 11
277.0096340220761
 21
15.73121731203457
 31
0.0
  0
LINE
  5
74
330
47
100
AcDbEntity
  8
1
  6
Continuous
 62
     7
100
AcDbLine
 10
278.6763006887428
 20
7.5
 30
0.0
 11
270.2598654136012
 21
12.35563573565855
 31
0.0
  0
LINE
  5
75
330
47
100
AcDbEntity
  8
1
  6
Continuous
 62
     7
100
AcDbLine
 10
287.0927359638843
 20
12.35563573565855
 30
0.0
 11
278.6763006887428
 21
7.5
 31
0.0
  0
LINE
  5
76
330
47
100
AcDbEntity
  8
1
  6
Continuous
 62
     7
100
AcDbLine
 10
278.6763006887428
 20
17.5
 30
0.0
 11
287.0927359638843
 21
12.64436426434133
 31
0.0
  0
LINE
  5
77
330
47
100
AcDbEntity
  8
1
  6
Continuous
 62
     7
100
AcDbLine
 10
270.2598654136012
 20
12.64436426434133
 30
0.0
 11
278.6763006887428
 21
17.5
 31
0.0
  0
LINE
  5
78
102
{ACAD_REACTORS
330
A9
102
}
330
47
100
AcDbEntity
  8
1
  6
Continuous
 62
     7
100
AcDbLine
 10
277.6763006887428
 20
14.23205080756884
 30
0.0
 11
277.6763006887428
 21
12.5
 31
0.0
  0
LINE
  5
79
102
{ACAD_REACTORS
330
A9
102
}
330
47
100
AcDbEntity
  8
1
  6
Continuous
 62
     7
100
AcDbLine
 10
278.5319631214453
 20
12.75
 30
0.0
 11
277.6763006887428
 21
14.23205080756884
 31
0.0
  0
LINE
  5
7A
102
{ACAD_REACTORS
330
A9
102
}
330
47
100
AcDbEntity
  8
1
  6
Continuous
 62
     7
100
AcDbLine
 10
279.6763006887428
 20
14.23205080756884
 30
0.0
 11
278.8206382560402
 21
12.75
 31
0.0
  0
LINE
  5
7B
102
{ACAD_REACTORS
330
A9
102
}
330
47
100
AcDbEntity
  8
1
  6
Continuous
 62
     7
100
AcDbLine
 10
279.6763006887428
 20
12.5
 30
0.0
 11
279.6763006887428
 21
14.23205080756884
 31
0.0
  0
LINE
  5
7C
102
{ACAD_REACTORS
330
A6
102
}
330
47
100
AcDbEntity
  8
1
  6
Continuous
 62
     7
100
AcDbLine
 10
281.0096340220762
 20
10.07749983983263
 30
0.0
 11
281.0096340220762
 21
14.92250016016737
 31
0.0
  0
LINE
  5
7D
330
47
100
AcDbEntity
  8
1
  6
Continuous
 62
     7
100
AcDbLine
 10
292.0000000000001
 20
189.0
 30
0.0
 11
4.99999999999989
 21
189.0
 31
0.0
  0
LINE
  5
7E
330
47
100
AcDbEntity
  8
1
  6
Continuous
 62
     7
100
AcDbLine
 10
292.0000000000001
 20
5.0
 30
0.0
 11
292.0000000000001
 21
189.0
 31
0.0
  0
LINE
  5
7F
330
47
100
AcDbEntity
  8
1
  6
Continuous
 62
     7
100
AcDbLine
 10
4.99999999999989
 20
5.0
 30
0.0
 11
292.0000000000001
 21
5.0
 31
0.0
  0
LINE
  5
80
330
47
100
AcDbEntity
  8
1
  6
Continuous
 62
     7
100
AcDbLine
 10
297.0000000000001
 20
0.0
 30
0.0
 11
297.0000000000001
 21
210.0000000000001
 31
0.0
  0
LINE
  5
81
330
47
100
AcDbEntity
  8
1
  6
Continuous
 62
     7
100
AcDbLine
 10
297.0000000000001
 20
210.0000000000001
 30
0.0
 11
0.0
 21
210.0000000000001
 31
0.0
  0
LINE
  5
82
330
47
100
AcDbEntity
  8
1
  6
Continuous
 62
     7
100
AcDbLine
 10
0.0
 20
210.0000000000001
 30
0.0
 11
0.0
 21
0.0
 31
0.0
  0
LINE
  5
83
330
47
100
AcDbEntity
  8
1
  6
Continuous
 62
     7
100
AcDbLine
 10
0.0
 20
0.0
 30
0.0
 11
297.0000000000001
 21
0.0
 31
0.0
  0
LINE
  5
84
330
47
100
AcDbEntity
  8
1
  6
Continuous
 62
     7
100
AcDbLine
 10
148.4999999999998
 20
210.0000000000001
 30
0.0
 11
148.4999999999998
 21
195.0000000000001
 31
0.0
  0
LINE
  5
85
330
47
100
AcDbEntity
  8
1
  6
Continuous
 62
     7
100
AcDbLine
 10
138.0000000000001
 20
20.0
 30
0.0
 11
138.0000000000001
 21
5.0
 31
0.0
  0
LINE
  5
86
330
47
100
AcDbEntity
  8
1
  6
Continuous
 62
     7
100
AcDbLine
 10
265.3526013774855
 20
20.0
 30
0.0
 11
265.3526013774855
 21
5.0
 31
0.0
  0
LINE
  5
87
330
47
100
AcDbEntity
  8
1
  6
Continuous
 62
     7
100
AcDbLine
 10
248.0000000000001
 20
20.0
 30
0.0
 11
248.0000000000001
 21
5.0
 31
0.0
  0
LINE
  5
88
330
47
100
AcDbEntity
  8
1
  6
Continuous
 62
     7
100
AcDbLine
 10
108.0000000000001
 20
14.99999999999989
 30
0.0
 11
138.0000000000001
 21
14.99999999999989
 31
0.0
  0
LINE
  5
89
330
47
100
AcDbEntity
  8
1
  6
Continuous
 62
     7
100
AcDbLine
 10
108.0000000000001
 20
9.99999999999986
 30
0.0
 11
138.0000000000001
 21
9.99999999999986
 31
0.0
  0
ARC
  5
8A
102
{ACAD_REACTORS
330
A6
102
}
330
47
100
AcDbEntity
  8
1
  6
Continuous
 62
     7
100
AcDbCircle
 10
282.6763006887428
 20
10.84673060906323
 30
0.0
 40
0.3333333333333172
100
AcDbArc
 50
299.9816393688334
 51
119.9816393688407
  0
ARC
  5
8B
102
{ACAD_REACTORS
330
A6
102
}
330
47
100
AcDbEntity
  8
1
  6
Continuous
 62
     7
100
AcDbCircle
 10
282.6763006887428
 20
12.5
 30
0.0
 40
0.3333333333333695
100
AcDbArc
 50
270.0
 51
90.0
  0
ARC
  5
8C
102
{ACAD_REACTORS
330
A6
102
}
330
47
100
AcDbEntity
  8
1
  6
Continuous
 62
     7
100
AcDbCircle
 10
282.6763006887428
 20
14.15326939093666
 30
0.0
 40
0.3333333333333755
100
AcDbArc
 50
240.0183606311498
 51
60.01836063115638
  0
ARC
  5
8D
102
{ACAD_REACTORS
330
A7
102
}
330
47
100
AcDbEntity
  8
1
  6
Continuous
 62
     7
100
AcDbCircle
 10
274.6763006887428
 20
10.84673060906323
 30
0.0
 40
0.3333333333333712
100
AcDbArc
 50
180.0
 51
0.0
  0
ARC
  5
8E
102
{ACAD_REACTORS
330
A7
102
}
330
47
100
AcDbEntity
  8
1
  6
Continuous
 62
     7
100
AcDbCircle
 10
274.6763006887428
 20
14.15326939093666
 30
0.0
 40
0.3333333333333144
100
AcDbArc
 50
0.0
 51
180.0
  0
ARC
  5
8F
102
{ACAD_REACTORS
330
A8
102
}
330
47
100
AcDbEntity
  8
1
  6
Continuous
 62
     7
100
AcDbCircle
 10
278.3429673554094
 20
8.7313459936787
 30
0.0
 40
0.3333333333333709
100
AcDbArc
 50
240.0183606311493
 51
60.01836063114089
  0
ARC
  5
90
102
{ACAD_REACTORS
330
A8
102
}
330
47
100
AcDbEntity
  8
1
  6
Continuous
 62
     7
100
AcDbCircle
 10
276.0096340220761
 20
14.92250016016737
 30
0.0
 40
0.3333333333333144
100
AcDbArc
 50
0.0
 51
180.0
  0
ARC
  5
91
102
{ACAD_REACTORS
330
A9
102
}
330
47
100
AcDbEntity
  8
1
  6
Continuous
 62
     7
100
AcDbCircle
 10
280.0780011429341
 20
15.73121731203457
 30
0.0
 40
0.2649662124753149
100
AcDbArc
 50
0.0
 51
149.9999999999746
  0
ARC
  5
92
102
{ACAD_REACTORS
330
A9
102
}
330
47
100
AcDbEntity
  8
1
  6
Continuous
 62
     7
100
AcDbCircle
 10
280.0096340220762
 20
9.3082690706018
 30
0.0
 40
0.3333333333334281
100
AcDbArc
 50
180.0
 51
0.0
  0
ARC
  5
93
102
{ACAD_REACTORS
330
A9
102
}
330
47
100
AcDbEntity
  8
1
  6
Continuous
 62
     7
100
AcDbCircle
 10
277.3429673554094
 20
10.84758507263291
 30
0.0
 40
0.3333333333333144
100
AcDbArc
 50
180.0
 51
0.0
  0
ARC
  5
94
102
{ACAD_REACTORS
330
A9
102
}
330
47
100
AcDbEntity
  8
1
  6
Continuous
 62
     7
100
AcDbCircle
 10
277.2746002345514
 20
15.73121731203457
 30
0.0
 40
0.2649662124753346
100
AcDbArc
 50
30.00000000001307
 51
180.0
  0
ARC
  5
95
102
{ACAD_REACTORS
330
A6
102
}
330
47
100
AcDbEntity
  8
1
  6
Continuous
 62
     7
100
AcDbCircle
 10
281.3429673554094
 20
10.07749983983263
 30
0.0
 40
0.3333333333332007
100
AcDbArc
 50
180.0
 51
299.9816393688589
  0
ARC
  5
96
102
{ACAD_REACTORS
330
A6
102
}
330
47
100
AcDbEntity
  8
1
  6
Continuous
 62
     7
100
AcDbCircle
 10
281.3429673554094
 20
14.92250016016737
 30
0.0
 40
0.3333333333334024
100
AcDbArc
 50
60.01836063114121
 51
180.0
  0
ARC
  5
97
330
47
100
AcDbEntity
  8
1
  6
Continuous
 62
     7
100
AcDbCircle
 10
287.0094488883027
 20
12.5
 30
0.0
 40
0.166666666666687
100
AcDbArc
 50
299.9816393688503
 51
60.01836063112923
  0
ARC
  5
98
330
47
100
AcDbEntity
  8
1
  6
Continuous
 62
     7
100
AcDbCircle
 10
270.3431524891829
 20
12.5
 30
0.0
 40
0.1666666666666407
100
AcDbArc
 50
119.9816393689046
 51
240.0183606311158
  0
ARC
  5
99
102
{ACAD_REACTORS
330
A8
102
}
330
47
100
AcDbEntity
  8
1
  6
Continuous
 62
     7
100
AcDbCircle
 10
276.3429673554094
 20
10.2700211480327
 30
0.0
 40
0.6666666666666288
100
AcDbArc
 50
180.0000000000104
 51
240.018360631158
  0
ARC
  5
9A
102
{ACAD_REACTORS
330
A9
102
}
330
47
100
AcDbEntity
  8
1
  6
Continuous
 62
     7
100
AcDbCircle
 10
278.6763006887428
 20
12.83333333333326
 30
0.0
 40
0.166666666666709
100
AcDbArc
 50
209.9999999999622
 51
330.0000000000182
  0
MTEXT
  5
9C
330
47
100
AcDbEntity
  8
1
 62
     7
100
AcDbMText
 10
256.6763006887428
 20
10.06063942075605
 30
0.0
 40
4.5
 41
0.0
 71
     5
 72
     1
  1
1:1
  7
CONVERTER_11
 73
     1
 44
1.32052821128451
  0
MTEXT
  5
9D
330
47
100
AcDbEntity
  8
1
 62
     7
100
AcDbMText
 10
256.6763006887428
 20
16.26063942075598
 30
0.0
 40
3.0
 41
0.0
 71
     5
 72
     1
  1
Scale
  7
CONVERTER_11
 73
     1
 44
1.32052821128451
  0
MTEXT
  5
9E
330
47
100
AcDbEntity
  8
1
 62
     7
100
AcDbMText
 10
144.2763006887428
 20
12.5
 30
0.0
 40
4.5
 41
0.0
 71
     4
 72
     1
  1
C7 06 FL\PFrame for bulkhead housing 06P
  7
CONVERTER_11
 73
     1
 44
0.90036014405762
  0
MTEXT
  5
9F
330
47
100
AcDbEntity
  8
1
 62
     7
100
AcDbMText
 10
151.4999999999998
 20
194.0000000000001
 30
0.0
 40
4.0
 41
0.0
 71
     5
 72
     1
  1
Diritti riservati      All rights reserved
  7
CONVERTER_11
 73
     1
 44
1.32052821128451
  0
MTEXT
  5
A1
330
47
100
AcDbEntity
  8
1
 62
     7
100
AcDbMText
 10
123.0000000000001
 20
17.49999999999994
 30
0.0
 40
2.5
 41
0.0
 71
     5
 72
     1
  1
dimensions in mm
  7
CONVERTER_12
 73
     1
 44
0.60024009603842
  0
MTEXT
  5
A2
330
47
100
AcDbEntity
  8
1
 62
     7
100
AcDbMText
 10
109.0000000000001
 20
12.49999999999987
 30
0.0
 40
3.0
 41
0.0
 71
     4
 72
     1
  1
Date
  7
CONVERTER_11
 73
     1
 44
1.32052821128451
  0
MTEXT
  5
A3
330
47
100
AcDbEntity
  8
1
 62
     7
100
AcDbMText
 10
119.6000000000001
 20
12.49999999999987
 30
0.0
 40
3.0
 41
0.0
 71
     4
 72
     1
  1
25/02/15
  7
CONVERTER_11
 73
     1
 44
1.32052821128451
  0
MTEXT
  5
A4
330
47
100
AcDbEntity
  8
1
 62
     7
100
AcDbMText
 10
109.0000000000001
 20
7.49999999999987
 30
0.0
 40
3.0
 41
0.0
 71
     4
 72
     1
  1
Sign.
  7
CONVERTER_11
 73
     1
 44
1.32052821128451
  0
MTEXT
  5
A5
330
47
100
AcDbEntity
  8
1
 62
     7
100
AcDbMText
 10
119.6000000000001
 20
7.49999999999987
 30
0.0
 40
3.0
 41
0.0
 71
     4
 72
     1
  1
Radice
  7
CONVERTER_11
 73
     1
 44
1.32052821128451
  0
HATCH
  5
A6
330
47
100
AcDbEntity
  8
1
  6
Continuous
 62
     7
100
AcDbHatch
 10
0.0
 20
0.0
 30
0.0
210
0.0
220
0.0
230
1.0
  2
SOLID
 70
     1
 71
     1
 91
        1
 92
        1
 93
       14
 72
     2
 10
281.3429673554094
 20
14.92250016016737
 40
0.3333333333334024
 50
60.01836063114121
 51
180.0
 73
     1
 72
     1
 10
281.0096340220762
 20
14.92250016016737
 11
281.0096340220762
 21
10.07749983983263
 72
     2
 10
281.3429673554094
 20
10.07749983983263
 40
0.3333333333332007
 50
180.0
 51
299.9816393688589
 73
     1
 72
     1
 10
281.5095415065727
 20
9.78877131114973
 11
282.8428748399059
 21
10.55800208038033
 72
     2
 10
282.6763006887428
 20
10.84673060906323
 40
0.3333333333333172
 50
299.9816393688334
 51
479.9816393688407
 73
     1
 72
     1
 10
282.5097265375796
 20
11.13545913774624
 11
281.6763006887428
 21
10.65463653264794
 72
     1
 10
281.6763006887428
 20
10.65463653264794
 11
281.6763006887428
 21
12.16666666666663
 72
     1
 10
281.6763006887428
 20
12.16666666666663
 11
282.6763006887428
 21
12.16666666666663
 72
     2
 10
282.6763006887428
 20
12.5
 40
0.3333333333333695
 50
270.0
 51
450.0
 73
     1
 72
     1
 10
282.6763006887428
 20
12.83333333333326
 11
281.6763006887428
 21
12.83333333333326
 72
     1
 10
281.6763006887428
 20
12.83333333333326
 11
281.6763006887428
 21
14.34536346735195
 72
     1
 10
281.6763006887428
 20
14.34536346735195
 11
282.5097265375796
 21
13.86454086225376
 72
     2
 10
282.6763006887428
 20
14.15326939093666
 40
0.3333333333333755
 50
240.0183606311498
 51
420.0183606311564
 73
     1
 72
     1
 10
282.8428748399059
 20
14.44199791961944
 11
281.5095415065727
 21
15.21122868885027
 97
       14
330
8C
330
64
330
63
330
62
330
8B
330
61
330
60
330
5F
330
8A
330
5E
330
95
330
7C
330
96
330
65
 75
     0
 76
     1
 98
        1
 10
0.0
 20
0.0
  0
HATCH
  5
A7
330
47
100
AcDbEntity
  8
1
  6
Continuous
 62
     7
100
AcDbHatch
 10
0.0
 20
0.0
 30
0.0
210
0.0
220
0.0
230
1.0
  2
SOLID
 70
     1
 71
     1
 91
        1
 92
        1
 93
        5
 72
     2
 10
274.6763006887428
 20
14.15326939093666
 40
0.3333333333333144
 50
0.0
 51
180.0
 73
     1
 72
     1
 10
274.3429673554094
 20
14.15326939093666
 11
274.3429673554094
 21
10.84673060906323
 72
     2
 10
274.6763006887428
 20
10.84673060906323
 40
0.3333333333333712
 50
180.0
 51
360.0
 73
     1
 72
     1
 10
275.0096340220761
 20
10.84673060906323
 11
275.0096340220761
 21
11.0392519172633
 72
     1
 10
275.0096340220761
 20
11.0392519172633
 11
275.0096340220761
 21
14.15326939093666
 97
        5
330
8E
330
66
330
8D
330
67
330
68
 75
     0
 76
     1
 98
        1
 10
0.0
 20
0.0
  0
HATCH
  5
A8
330
47
100
AcDbEntity
  8
1
  6
Continuous
 62
     7
100
AcDbHatch
 10
0.0
 20
0.0
 30
0.0
210
0.0
220
0.0
230
1.0
  2
SOLID
 70
     1
 71
     1
 91
        1
 92
        1
 93
        7
 72
     2
 10
276.0096340220761
 20
14.92250016016737
 40
0.3333333333333144
 50
0.0
 51
180.0
 73
     1
 72
     1
 10
275.6763006887428
 20
14.92250016016737
 11
275.6763006887428
 21
10.27002114803258
 72
     2
 10
276.3429673554094
 20
10.2700211480327
 40
0.6666666666666288
 50
180.0000000000104
 51
240.018360631158
 73
     1
 72
     1
 10
276.0098190530831
 20
9.692564090666906
 11
278.1763932042462
 21
8.442617464995806
 72
     2
 10
278.3429673554094
 20
8.731345993678701
 40
0.3333333333333709
 50
240.0183606311493
 51
420.0183606311409
 73
     1
 72
     1
 10
278.5095415065727
 20
9.020074522361597
 11
276.3429673554094
 21
10.2700211480327
 72
     1
 10
276.3429673554094
 20
10.2700211480327
 11
276.3429673554094
 21
14.92250016016737
 97
        7
330
90
330
6C
330
99
330
69
330
8F
330
6A
330
6B
 75
     0
 76
     1
 98
        1
 10
0.0
 20
0.0
  0
HATCH
  5
A9
330
47
100
AcDbEntity
  8
1
  6
Continuous
 62
     7
100
AcDbHatch
 10
0.0
 20
0.0
 30
0.0
210
0.0
220
0.0
230
1.0
  2
SOLID
 70
     1
 71
     1
 91
        1
 92
        1
 93
       16
 72
     2
 10
280.0780011429341
 20
15.73121731203457
 40
0.2649662124753149
 50
210.0000000000254
 51
360.0
 73
     0
 72
     1
 10
280.3429673554094
 20
15.73121731203457
 11
280.3429673554094
 21
9.308269070601796
 72
     2
 10
280.0096340220762
 20
9.308269070601796
 40
0.3333333333334281
 50
0.0
 51
180.0
 73
     0
 72
     1
 10
279.6763006887428
 20
9.308269070601796
 11
279.6763006887428
 21
12.5
 72
     1
 10
279.6763006887428
 20
12.5
 11
279.6763006887428
 21
14.23205080756884
 72
     1
 10
279.6763006887428
 20
14.23205080756884
 11
278.8206382560402
 21
12.75
 72
     2
 10
278.6763006887428
 20
12.83333333333326
 40
0.166666666666709
 50
29.99999999998175
 51
150.0000000000378
 73
     0
 72
     1
 10
278.5319631214453
 20
12.75
 11
277.6763006887428
 21
14.23205080756884
 72
     1
 10
277.6763006887428
 20
14.23205080756884
 11
277.6763006887428
 21
12.5
 72
     1
 10
277.6763006887428
 20
12.5
 11
277.6763006887428
 21
10.84758507263291
 72
     2
 10
277.3429673554094
 20
10.84758507263291
 40
0.3333333333333144
 50
0.0
 51
180.0
 73
     0
 72
     1
 10
277.0096340220761
 20
10.84758507263291
 11
277.0096340220761
 21
12.5
 72
     1
 10
277.0096340220761
 20
12.5
 11
277.0096340220761
 21
15.73121731203457
 72
     2
 10
277.2746002345514
 20
15.73121731203457
 40
0.2649662124753346
 50
180.0
 51
329.9999999999869
 73
     0
 72
     1
 10
277.5040677056995
 20
15.86370041827229
 11
278.6763006887428
 21
13.83333333333326
 72
     1
 10
278.6763006887428
 20
13.83333333333326
 11
279.8485336717861
 21
15.86370041827229
 97
       16
330
72
330
94
330
73
330
71
330
93
330
70
330
78
330
79
330
9A
330
7A
330
7B
330
6F
330
92
330
6E
330
91
330
6D
 75
     0
 76
     1
 98
        1
 10
0.0
 20
0.0
  0
ENDBLK
  5
49
330
47
100
AcDbEntity
  8
0
100
AcDbBlockEnd
  0
BLOCK
  5
4C
330
4A
100
AcDbEntity
  8
0
100
AcDbBlockBegin
  2
A4_oriz
 70
     0
 10
297.0000000000001
 20
0.0
 30
0.0
  3
A4_oriz
  1

  0
INSERT
  5
4B
330
4A
100
AcDbEntity
  8
1
100
AcDbBlockReference
  2
_formato_A4
 10
297.0000000000001
 20
0.0
 30
0.0
  0
ENDBLK
  5
4D
330
4A
100
AcDbEntity
  8
0
100
AcDbBlockEnd
  0
BLOCK
  5
152
330
14A
100
AcDbEntity
  8
0
100
AcDbBlockBegin
  2
*D3
 70
     1
 10
0.0
 20
0.0
 30
0.0
  3
*D3
  1

  0
LINE
  5
14B
330
14A
100
AcDbEntity
  8
1
  6
Continuous
 62
     7
100
AcDbLine
 10
56.25681673188808
 20
143.0795064486185
 30
0.0
 11
56.25681673188808
 21
111.0795064486185
 31
0.0
  0
LINE
  5
14C
330
14A
100
AcDbEntity
  8
1
  6
Continuous
 62
     7
100
AcDbLine
 10
74.55681673188815
 20
111.0795064486185
 30
0.0
 11
55.25681673188808
 21
111.0795064486185
 31
0.0
  0
LINE
  5
14D
330
14A
100
AcDbEntity
  8
1
  6
Continuous
 62
     7
100
AcDbLine
 10
74.55681673188815
 20
143.0795064486185
 30
0.0
 11
55.25681673188808
 21
143.0795064486185
 31
0.0
  0
SOLID
  5
14E
330
14A
100
AcDbEntity
  8
1
 62
     7
100
AcDbTrace
 10
56.65177422465027
 20
140.0795064486185
 30
0.0
 11
55.86185923912589
 21
140.0795064486185
 31
0.0
 12
56.25681673188808
 22
143.0795064486185
 32
0.0
 13
56.25681673188808
 23
143.0795064486185
 33
0.0
  0
SOLID
  5
14F
330
14A
100
AcDbEntity
  8
1
 62
     7
100
AcDbTrace
 10
55.86185923912589
 20
114.0795064486185
 30
0.0
 11
56.65177422465027
 21
114.0795064486185
 31
0.0
 12
56.25681673188808
 22
111.0795064486185
 32
0.0
 13
56.25681673188808
 23
111.0795064486185
 33
0.0
  0
MTEXT
  5
151
330
14A
100
AcDbEntity
  8
1
 62
     7
100
AcDbMText
 10
54.25681673188808
 20
124.8295064486185
 30
0.0
 40
3.0
 41
0.0
 71
     7
 72
     1
  1
32
  7
CONVERTER_13
 11
0.0
 21
1.0
 31
0.0
 73
     1
 44
0.60024009603842
  0
ENDBLK
  5
153
330
14A
100
AcDbEntity
  8
0
100
AcDbBlockEnd
  0
BLOCK
  5
15D
330
156
100
AcDbEntity
  8
0
100
AcDbBlockBegin
  2
*D4
 70
     1
 10
0.0
 20
0.0
 30
0.0
  3
*D4
  1

  0
LINE
  5
157
330
156
100
AcDbEntity
  8
1
  6
Continuous
 62
     7
100
AcDbLine
 10
66.2568167318881
 20
71.07950644861856
 30
0.0
 11
162.2568167318881
 21
71.07950644861856
 31
0.0
  0
LINE
  5
158
330
156
100
AcDbEntity
  8
1
  6
Continuous
 62
     7
100
AcDbLine
 10
162.2568167318881
 20
103.5795064486185
 30
0.0
 11
162.2568167318881
 21
70.07950644861856
 31
0.0
  0
LINE
  5
159
330
156
100
AcDbEntity
  8
1
  6
Continuous
 62
     7
100
AcDbLine
 10
66.2568167318881
 20
103.5795064486185
 30
0.0
 11
66.2568167318881
 21
70.07950644861856
 31
0.0
  0
SOLID
  5
15A
330
156
100
AcDbEntity
  8
1
 62
     7
100
AcDbTrace
 10
69.2568167318881
 20
71.47446394138075
 30
0.0
 11
69.2568167318881
 21
70.68454895585637
 31
0.0
 12
66.2568167318881
 22
71.07950644861856
 32
0.0
 13
66.2568167318881
 23
71.07950644861856
 33
0.0
  0
SOLID
  5
15B
330
156
100
AcDbEntity
  8
1
 62
     7
100
AcDbTrace
 10
159.2568167318881
 20
70.68454895585637
 30
0.0
 11
159.2568167318881
 21
71.47446394138075
 31
0.0
 12
162.2568167318881
 22
71.07950644861856
 32
0.0
 13
162.2568167318881
 23
71.07950644861856
 33
0.0
  0
MTEXT
  5
15C
330
156
100
AcDbEntity
  8
1
 62
     7
100
AcDbMText
 10
112.0068167318881
 20
73.07950644861856
 30
0.0
 40
3.0
 41
0.0
 71
     7
 72
     1
  1
96
  7
CONVERTER_13
 11
0.9999999999970619
 21
2.424068405545306E-6
 31
0.0
 73
     1
 44
0.60024009603842
  0
ENDBLK
  5
15E
330
156
100
AcDbEntity
  8
0
100
AcDbBlockEnd
  0
BLOCK
  5
168
330
161
100
AcDbEntity
  8
0
100
AcDbBlockBegin
  2
*D5
 70
     1
 10
0.0
 20
0.0
 30
0.0
  3
*D5
  1

  0
LINE
  5
162
330
161
100
AcDbEntity
  8
1
  6
Continuous
 62
     7
100
AcDbLine
 10
79.2568167318881
 20
83.07950644861856
 30
0.0
 11
149.2568167318881
 21
83.07950644861856
 31
0.0
  0
LINE
  5
163
330
161
100
AcDbEntity
  8
1
  6
Continuous
 62
     7
100
AcDbLine
 10
149.2568167318881
 20
106.3795064486186
 30
0.0
 11
149.2568167318881
 21
82.07950644861856
 31
0.0
  0
LINE
  5
164
330
161
100
AcDbEntity
  8
1
  6
Continuous
 62
     7
100
AcDbLine
 10
79.2568167318881
 20
106.3795064486186
 30
0.0
 11
79.2568167318881
 21
82.07950644861856
 31
0.0
  0
SOLID
  5
165
330
161
100
AcDbEntity
  8
1
 62
     7
100
AcDbTrace
 10
82.2568167318881
 20
83.47446394138075
 30
0.0
 11
82.2568167318881
 21
82.68454895585637
 31
0.0
 12
79.2568167318881
 22
83.07950644861856
 32
0.0
 13
79.2568167318881
 23
83.07950644861856
 33
0.0
  0
SOLID
  5
166
330
161
100
AcDbEntity
  8
1
 62
     7
100
AcDbTrace
 10
146.2568167318881
 20
82.68454895585637
 30
0.0
 11
146.2568167318881
 21
83.47446394138075
 31
0.0
 12
149.2568167318881
 22
83.07950644861856
 32
0.0
 13
149.2568167318881
 23
83.07950644861856
 33
0.0
  0
MTEXT
  5
167
330
161
100
AcDbEntity
  8
1
 62
     7
100
AcDbMText
 10
112.0068167318881
 20
85.07950644861856
 30
0.0
 40
3.0
 41
0.0
 71
     7
 72
     1
  1
70
  7
CONVERTER_13
 11
0.9999999999970619
 21
2.424068405545306E-6
 31
0.0
 73
     1
 44
0.60024009603842
  0
ENDBLK
  5
169
330
161
100
AcDbEntity
  8
0
100
AcDbBlockEnd
  0
BLOCK
  5
173
330
16C
100
AcDbEntity
  8
0
100
AcDbBlockBegin
  2
*D6
 70
     1
 10
0.0
 20
0.0
 30
0.0
  3
*D6
  1

  0
LINE
  5
16D
330
16C
100
AcDbEntity
  8
1
  6
Continuous
 62
     7
100
AcDbLine
 10
200.8568167318134
 20
83.07950644861856
 30
0.0
 11
212.8568167318133
 21
83.07950644861856
 31
0.0
  0
LINE
  5
16E
330
16C
100
AcDbEntity
  8
1
  6
Continuous
 62
     7
100
AcDbLine
 10
212.8568167318133
 20
104.5795064486185
 30
0.0
 11
212.8568167318133
 21
82.07950644861856
 31
0.0
  0
LINE
  5
16F
330
16C
100
AcDbEntity
  8
1
  6
Continuous
 62
     7
100
AcDbLine
 10
200.8568167318134
 20
98.07950644861855
 30
0.0
 11
200.8568167318134
 21
82.07950644861856
 31
0.0
  0
SOLID
  5
170
330
16C
100
AcDbEntity
  8
1
 62
     7
100
AcDbTrace
 10
203.8568167318134
 20
83.47446394138075
 30
0.0
 11
203.8568167318134
 21
82.68454895585637
 31
0.0
 12
200.8568167318134
 22
83.07950644861856
 32
0.0
 13
200.8568167318134
 23
83.07950644861856
 33
0.0
  0
SOLID
  5
171
330
16C
100
AcDbEntity
  8
1
 62
     7
100
AcDbTrace
 10
209.8568167318133
 20
82.68454895585637
 30
0.0
 11
209.8568167318133
 21
83.47446394138075
 31
0.0
 12
212.8568167318133
 22
83.07950644861856
 32
0.0
 13
212.8568167318133
 23
83.07950644861856
 33
0.0
  0
MTEXT
  5
172
330
16C
100
AcDbEntity
  8
1
 62
     7
100
AcDbMText
 10
205.0568167318133
 20
85.07950644861856
 30
0.0
 40
3.0
 41
0.0
 71
     7
 72
     1
  1
12
  7
CONVERTER_13
 11
0.9999999999970619
 21
2.424068405545306E-6
 31
0.0
 73
     1
 44
0.60024009603842
  0
ENDBLK
  5
174
330
16C
100
AcDbEntity
  8
0
100
AcDbBlockEnd
  0
BLOCK
  5
17E
330
177
100
AcDbEntity
  8
0
100
AcDbBlockBegin
  2
*D7
 70
     1
 10
0.0
 20
0.0
 30
0.0
  3
*D7
  1

  0
LINE
  5
178
330
177
100
AcDbEntity
  8
1
  6
Continuous
 62
     7
100
AcDbLine
 10
227.8568167318133
 20
98.07950644861852
 30
0.0
 11
227.8568167318133
 21
156.0795064486185
 31
0.0
  0
LINE
  5
179
330
177
100
AcDbEntity
  8
1
  6
Continuous
 62
     7
100
AcDbLine
 10
204.8568167318134
 20
156.0795064486185
 30
0.0
 11
228.8568167318133
 21
156.0795064486185
 31
0.0
  0
LINE
  5
17A
330
177
100
AcDbEntity
  8
1
  6
Continuous
 62
     7
100
AcDbLine
 10
204.8568167318134
 20
98.07950644861852
 30
0.0
 11
228.8568167318133
 21
98.07950644861852
 31
0.0
  0
SOLID
  5
17B
330
177
100
AcDbEntity
  8
1
 62
     7
100
AcDbTrace
 10
227.4618592390511
 20
101.0795064486185
 30
0.0
 11
228.2517742245755
 21
101.0795064486185
 31
0.0
 12
227.8568167318133
 22
98.07950644861852
 32
0.0
 13
227.8568167318133
 23
98.07950644861852
 33
0.0
  0
SOLID
  5
17C
330
177
100
AcDbEntity
  8
1
 62
     7
100
AcDbTrace
 10
228.2517742245755
 20
153.0795064486185
 30
0.0
 11
227.4618592390511
 21
153.0795064486185
 31
0.0
 12
227.8568167318133
 22
156.0795064486185
 32
0.0
 13
227.8568167318133
 23
156.0795064486185
 33
0.0
  0
MTEXT
  5
17D
330
177
100
AcDbEntity
  8
1
 62
     7
100
AcDbMText
 10
225.8568167318133
 20
124.8295064486185
 30
0.0
 40
3.0
 41
0.0
 71
     7
 72
     1
  1
58
  7
CONVERTER_13
 11
0.0
 21
1.0
 31
0.0
 73
     1
 44
0.60024009603842
  0
ENDBLK
  5
17F
330
177
100
AcDbEntity
  8
0
100
AcDbBlockEnd
  0
BLOCK
  5
188
330
182
100
AcDbEntity
  8
0
100
AcDbBlockBegin
  2
*D8
 70
     1
 10
0.0
 20
0.0
 30
0.0
  3
*D8
  1

  0
LINE
  5
183
330
182
100
AcDbEntity
  8
1
  6
Continuous
 62
     7
100
AcDbLine
 10
61.78411339235714
 20
93.95086683491364
 30
0.0
 11
51.0841133923571
 21
93.95086683491364
 31
0.0
  0
LINE
  5
184
330
182
100
AcDbEntity
  8
1
  6
Continuous
 62
     7
100
AcDbLine
 10
84.11271510678165
 20
115.8397849039935
 30
0.0
 11
61.78411339235714
 21
93.95086683491364
 31
0.0
  0
SOLID
  5
185
330
182
100
AcDbEntity
  8
1
 62
     7
100
AcDbTrace
 10
75.74855882845411
 20
107.0872492043917
 30
0.0
 11
75.19558599210566
 21
107.6513296300552
 31
0.0
 12
77.61438051685059
 22
109.4694122651829
 32
0.0
 13
77.61438051685059
 23
109.4694122651829
 33
0.0
  0
SOLID
  5
186
330
182
100
AcDbEntity
  8
1
 62
     7
100
AcDbTrace
 10
82.76507463532216
 20
115.0717636928454
 30
0.0
 11
83.31804747167061
 21
114.5076832671819
 31
0.0
 12
80.89925294692569
 22
112.6896006320542
 32
0.0
 13
80.89925294692569
 23
112.6896006320542
 33
0.0
  0
MTEXT
  5
187
330
182
100
AcDbEntity
  8
1
 62
     7
100
AcDbMText
 10
52.52411339236434
 20
95.95086087170536
 30
0.0
 40
3.0
 41
0.0
 71
     7
 72
     1
  1
\C7;M\C7;4
  7
CONVERTER_13
 11
0.9999999999970619
 21
2.424068405545306E-6
 31
0.0
 73
     1
 44
0.60024009603842
  0
ENDBLK
  5
189
330
182
100
AcDbEntity
  8
0
100
AcDbBlockEnd
  0
ENDSEC
  0
SECTION
  2
ENTITIES
  0
INSERT
  5
4E
330
1F
100
AcDbEntity
  8
0
100
AcDbBlockReference
  2
A4_oriz
 10
297.0000000000001
 20
0.0
 30
0.0
  0
LINE
  5
AA
330
1F
100
AcDbEntity
  8
1
  6
DOT_CENTER
 62
     7
100
AcDbLine
 10
195.8568167318132
 20
127.0795064486185
 30
0.0
 11
217.8568167318133
 21
127.0795064486185
 31
0.0
  0
LINE
  5
AB
330
1F
100
AcDbEntity
  8
1
  6
DOT_CENTER
 62
     7
100
AcDbLine
 10
114.2568167318881
 20
161.0795064486185
 30
0.0
 11
114.2568167318881
 21
93.07950644861856
 31
0.0
  0
LINE
  5
AC
330
1F
100
AcDbEntity
  8
1
  6
DOT_CENTER
 62
     7
100
AcDbLine
 10
61.25681673188808
 20
127.0795064486185
 30
0.0
 11
167.2568167318882
 21
127.0795064486185
 31
0.0
  0
LINE
  5
AD
330
1F
100
AcDbEntity
  8
1
  6
DOT_CENTER
 62
     7
100
AcDbLine
 10
79.25681673188814
 20
147.2795064486185
 30
0.0
 11
79.25681673188814
 21
138.8795064486185
 31
0.0
  0
LINE
  5
AE
330
1F
100
AcDbEntity
  8
1
  6
DOT_CENTER
 62
     7
100
AcDbLine
 10
83.45681673188813
 20
143.0795064486185
 30
0.0
 11
75.05681673188815
 21
143.0795064486185
 31
0.0
  0
LINE
  5
AF
330
1F
100
AcDbEntity
  8
1
  6
DOT_CENTER
 62
     7
100
AcDbLine
 10
79.25681673188814
 20
115.2795064486186
 30
0.0
 11
79.25681673188814
 21
106.8795064486186
 31
0.0
  0
LINE
  5
B0
330
1F
100
AcDbEntity
  8
1
  6
DOT_CENTER
 62
     7
100
AcDbLine
 10
83.45681673188813
 20
111.0795064486186
 30
0.0
 11
75.05681673188815
 21
111.0795064486186
 31
0.0
  0
LINE
  5
B1
330
1F
100
AcDbEntity
  8
1
  6
DOT_CENTER
 62
     7
100
AcDbLine
 10
149.2568167318881
 20
115.2795064486186
 30
0.0
 11
149.2568167318881
 21
106.8795064486186
 31
0.0
  0
LINE
  5
B2
330
1F
100
AcDbEntity
  8
1
  6
DOT_CENTER
 62
     7
100
AcDbLine
 10
153.4568167318881
 20
111.0795064486186
 30
0.0
 11
145.0568167318882
 21
111.0795064486186
 31
0.0
  0
LINE
  5
B3
330
1F
100
AcDbEntity
  8
1
  6
DOT_CENTER
 62
     7
100
AcDbLine
 10
149.2568167318881
 20
147.2795064486185
 30
0.0
 11
149.2568167318881
 21
138.8795064486185
 31
0.0
  0
LINE
  5
B4
330
1F
100
AcDbEntity
  8
1
  6
DOT_CENTER
 62
     7
100
AcDbLine
 10
153.4568167318881
 20
143.0795064486185
 30
0.0
 11
145.0568167318882
 21
143.0795064486185
 31
0.0
  0
LINE
  5
B5
330
1F
100
AcDbEntity
  8
0
  6
Continuous
 62
     7
100
AcDbLine
 10
66.25681673188808
 20
117.5795064486186
 30
0.0
 11
66.25681673188808
 21
136.5795064486186
 31
0.0
  0
LINE
  5
B6
330
1F
100
AcDbEntity
  8
0
  6
Continuous
 62
     7
100
AcDbLine
 10
66.25681673188808
 20
104.0795064486186
 30
0.0
 11
66.25681673188808
 21
117.5795064486186
 31
0.0
  0
LINE
  5
B7
330
1F
100
AcDbEntity
  8
0
  6
Continuous
 62
     7
100
AcDbLine
 10
208.8568167336082
 20
104.5795064468236
 30
0.0
 11
204.8568167300184
 21
100.5795064504135
 31
0.0
  0
LINE
  5
B8
330
1F
100
AcDbEntity
  8
0
  6
Continuous
 62
     7
100
AcDbLine
 10
208.8568167336082
 20
104.5795064468236
 30
0.0
 11
208.8568167318133
 21
110.8295064486186
 31
0.0
  0
LINE
  5
B9
330
1F
100
AcDbEntity
  8
0
  6
Continuous
 62
     7
100
AcDbLine
 10
212.3568167318133
 20
104.5795064486186
 30
0.0
 11
208.8568167336082
 21
104.5795064468236
 31
0.0
  0
LINE
  5
BA
330
1F
100
AcDbEntity
  8
0
  6
Continuous
 62
     7
100
AcDbLine
 10
208.8568167318133
 20
137.0795064486186
 30
0.0
 11
208.8568167318133
 21
143.3295064486186
 31
0.0
  0
LINE
  5
BB
330
1F
100
AcDbEntity
  8
0
  6
Continuous
 62
     7
100
AcDbLine
 10
212.8568167318133
 20
143.3295064486186
 30
0.0
 11
212.8568167318133
 21
136.5795064486186
 31
0.0
  0
LINE
  5
BC
330
1F
100
AcDbEntity
  8
0
  6
Continuous
 62
     7
100
AcDbLine
 10
208.8568167318133
 20
137.0795064486186
 30
0.0
 11
204.8568167318133
 21
137.0795064486186
 31
0.0
  0
LINE
  5
BD
330
1F
100
AcDbEntity
  8
0
  6
Continuous
 62
     7
100
AcDbLine
 10
212.3568167318133
 20
137.0795064486186
 30
0.0
 11
208.8568167318133
 21
137.0795064486186
 31
0.0
  0
LINE
  5
BE
330
1F
100
AcDbEntity
  8
0
  6
Continuous
 62
     7
100
AcDbLine
 10
212.8568167318133
 20
117.5795064486186
 30
0.0
 11
212.8568167318133
 21
136.5795064486186
 31
0.0
  0
LINE
  5
BF
330
1F
100
AcDbEntity
  8
0
  6
Continuous
 62
     7
100
AcDbLine
 10
204.8568167318133
 20
117.0795064486186
 30
0.0
 11
208.8568167318133
 21
117.0795064486186
 31
0.0
  0
LINE
  5
C0
330
1F
100
AcDbEntity
  8
0
  6
Continuous
 62
     7
100
AcDbLine
 10
208.8568167318133
 20
117.0795064486186
 30
0.0
 11
212.3568167318133
 21
117.0795064486186
 31
0.0
  0
LINE
  5
C1
330
1F
100
AcDbEntity
  8
0
  6
Continuous
 62
     7
100
AcDbLine
 10
208.8568167318133
 20
110.8295064486186
 30
0.0
 11
208.8568167318133
 21
117.0795064486186
 31
0.0
  0
LINE
  5
C2
330
1F
100
AcDbEntity
  8
0
  6
Continuous
 62
     7
100
AcDbLine
 10
212.8568167318133
 20
110.8295064486186
 30
0.0
 11
212.8568167318133
 21
105.0795064486186
 31
0.0
  0
LINE
  5
C3
330
1F
100
AcDbEntity
  8
0
  6
Continuous
 62
     7
100
AcDbLine
 10
212.8568167318133
 20
117.5795064486186
 30
0.0
 11
212.8568167318133
 21
110.8295064486186
 31
0.0
  0
LINE
  5
C4
330
1F
100
AcDbEntity
  8
0
  6
Continuous
 62
     7
100
AcDbLine
 10
204.8568167300184
 20
100.5795064504135
 30
0.0
 11
204.8568167318133
 21
104.0795064486186
 31
0.0
  0
LINE
  5
C5
330
1F
100
AcDbEntity
  8
0
  6
Continuous
 62
     7
100
AcDbLine
 10
204.8568167318133
 20
98.57950644861855
 30
0.0
 11
204.8568167300184
 21
100.5795064504135
 31
0.0
  0
LINE
  5
C6
330
1F
100
AcDbEntity
  8
0
  6
Continuous
 62
     7
100
AcDbLine
 10
200.8568167318132
 20
104.0795064486186
 30
0.0
 11
200.8568167318132
 21
98.57950644861855
 31
0.0
  0
LINE
  5
C7
330
1F
100
AcDbEntity
  8
0
  6
Continuous
 62
     7
100
AcDbLine
 10
201.3568167318133
 20
98.07950644861855
 30
0.0
 11
204.3568167318133
 21
98.07950644861855
 31
0.0
  0
LINE
  5
C8
330
1F
100
AcDbEntity
  8
0
  6
Continuous
 62
     7
100
AcDbLine
 10
200.8568167318132
 20
150.0795064486185
 30
0.0
 11
200.8568167318132
 21
104.0795064486186
 31
0.0
  0
LINE
  5
C9
330
1F
100
AcDbEntity
  8
0
  6
Continuous
 62
     7
100
AcDbLine
 10
200.8568167318132
 20
155.5795064486185
 30
0.0
 11
200.8568167318132
 21
150.0795064486185
 31
0.0
  0
LINE
  5
CA
330
1F
100
AcDbEntity
  8
0
  6
Continuous
 62
     7
100
AcDbLine
 10
212.3568167318133
 20
149.5795064486186
 30
0.0
 11
208.8568167318133
 21
149.5795064486186
 31
0.0
  0
LINE
  5
CB
330
1F
100
AcDbEntity
  8
0
  6
Continuous
 62
     7
100
AcDbLine
 10
208.8568167318133
 20
143.3295064486186
 30
0.0
 11
208.8568167318133
 21
149.5795064486186
 31
0.0
  0
LINE
  5
CC
330
1F
100
AcDbEntity
  8
0
  6
Continuous
 62
     7
100
AcDbLine
 10
212.8568167318133
 20
149.0795064486186
 30
0.0
 11
212.8568167318133
 21
143.3295064486186
 31
0.0
  0
LINE
  5
CD
330
1F
100
AcDbEntity
  8
0
  6
Continuous
 62
     7
100
AcDbLine
 10
204.8568167318133
 20
104.0795064486186
 30
0.0
 11
204.8568167318133
 21
117.0795064486186
 31
0.0
  0
LINE
  5
CE
330
1F
100
AcDbEntity
  8
0
  6
Continuous
 62
     7
100
AcDbLine
 10
208.8568167318133
 20
149.5795064486186
 30
0.0
 11
204.8568167300184
 21
153.5795064468236
 31
0.0
  0
LINE
  5
CF
330
1F
100
AcDbEntity
  8
0
  6
Continuous
 62
     7
100
AcDbLine
 10
204.8568167318133
 20
137.0795064486186
 30
0.0
 11
204.8568167318133
 21
150.0795064486185
 31
0.0
  0
LINE
  5
D0
330
1F
100
AcDbEntity
  8
0
  6
Continuous
 62
     7
100
AcDbLine
 10
201.3568167318133
 20
156.0795064486185
 30
0.0
 11
204.3568167318133
 21
156.0795064486185
 31
0.0
  0
LINE
  5
D1
330
1F
100
AcDbEntity
  8
0
  6
Continuous
 62
     7
100
AcDbLine
 10
204.8568167318133
 20
150.0795064486185
 30
0.0
 11
204.8568167300184
 21
153.5795064468236
 31
0.0
  0
LINE
  5
D2
330
1F
100
AcDbEntity
  8
0
  6
Continuous
 62
     7
100
AcDbLine
 10
204.8568167300184
 20
153.5795064468236
 30
0.0
 11
204.8568167318133
 21
155.5795064486185
 31
0.0
  0
LINE
  5
D3
330
1F
100
AcDbEntity
  8
0
  6
Continuous
 62
     7
100
AcDbLine
 10
159.7568167318881
 20
110.8295064486186
 30
0.0
 11
159.7568167318881
 21
117.0795064486186
 31
0.0
  0
LINE
  5
D4
330
1F
100
AcDbEntity
  8
0
  6
Continuous
 62
     7
100
AcDbLine
 10
162.2568167318881
 20
117.5795064486186
 30
0.0
 11
162.2568167318881
 21
104.0795064486186
 31
0.0
  0
LINE
  5
D5
330
1F
100
AcDbEntity
  8
0
  6
Continuous
 62
     7
100
AcDbLine
 10
155.7568167318881
 20
117.0795064486186
 30
0.0
 11
159.7568167318881
 21
117.0795064486186
 31
0.0
  0
LINE
  5
D6
330
1F
100
AcDbEntity
  8
0
  6
Continuous
 62
     7
100
AcDbLine
 10
142.0240786611435
 20
109.5795064486186
 30
0.0
 11
86.48955480263288
 21
109.5795064486186
 31
0.0
  0
LINE
  5
D7
330
1F
100
AcDbEntity
  8
0
  6
Continuous
 62
     7
100
AcDbLine
 10
79.00681673188814
 20
100.5795064486186
 30
0.0
 11
149.5068167318881
 21
100.5795064486186
 31
0.0
  0
LINE
  5
D8
330
1F
100
AcDbEntity
  8
0
  6
Continuous
 62
     7
100
AcDbLine
 10
156.2568167318881
 20
98.07950644861856
 30
0.0
 11
72.25681673188808
 21
98.07950644861856
 31
0.0
  0
LINE
  5
D9
330
1F
100
AcDbEntity
  8
0
  6
Continuous
 62
     7
100
AcDbLine
 10
149.5068167318881
 20
149.5795064486185
 30
0.0
 11
79.00681673188814
 21
149.5795064486185
 31
0.0
  0
LINE
  5
DA
330
1F
100
AcDbEntity
  8
0
  6
Continuous
 62
     7
100
AcDbLine
 10
159.7568167318881
 20
137.0795064486186
 30
0.0
 11
155.7568167318881
 21
137.0795064486186
 31
0.0
  0
LINE
  5
DB
330
1F
100
AcDbEntity
  8
0
  6
Continuous
 62
     7
100
AcDbLine
 10
161.7568167318881
 20
137.0795064486186
 30
0.0
 11
159.7568167318881
 21
137.0795064486186
 31
0.0
  0
LINE
  5
DC
330
1F
100
AcDbEntity
  8
0
  6
Continuous
 62
     7
100
AcDbLine
 10
159.7568167318881
 20
117.0795064486186
 30
0.0
 11
161.7568167318881
 21
117.0795064486186
 31
0.0
  0
LINE
  5
DD
330
1F
100
AcDbEntity
  8
0
  6
Continuous
 62
     7
100
AcDbLine
 10
159.7568167318881
 20
137.0795064486186
 30
0.0
 11
159.7568167318881
 21
143.3295064486186
 31
0.0
  0
LINE
  5
DE
330
1F
100
AcDbEntity
  8
0
  6
Continuous
 62
     7
100
AcDbLine
 10
149.5068167318881
 20
153.5795064486185
 30
0.0
 11
79.00681673188814
 21
153.5795064486185
 31
0.0
  0
LINE
  5
DF
330
1F
100
AcDbEntity
  8
0
  6
Continuous
 62
     7
100
AcDbLine
 10
72.25681673188808
 20
156.0795064486185
 30
0.0
 11
156.2568167318881
 21
156.0795064486185
 31
0.0
  0
LINE
  5
E0
330
1F
100
AcDbEntity
  8
0
  6
Continuous
 62
     7
100
AcDbLine
 10
155.7568167318881
 20
110.8295064486186
 30
0.0
 11
155.7568167318881
 21
117.0795064486186
 31
0.0
  0
LINE
  5
E1
330
1F
100
AcDbEntity
  8
0
  6
Continuous
 62
     7
100
AcDbLine
 10
155.7568167318881
 20
137.0795064486186
 30
0.0
 11
155.7568167318881
 21
143.3295064486186
 31
0.0
  0
LINE
  5
E2
330
1F
100
AcDbEntity
  8
0
  6
Continuous
 62
     7
100
AcDbLine
 10
86.48955480263288
 20
144.5795064486185
 30
0.0
 11
142.0240786611435
 21
144.5795064486185
 31
0.0
  0
LINE
  5
E3
330
1F
100
AcDbEntity
  8
0
  6
Continuous
 62
     7
100
AcDbLine
 10
79.00681673188814
 20
104.5795064486186
 30
0.0
 11
149.5068167318881
 21
104.5795064486186
 31
0.0
  0
LINE
  5
E4
330
1F
100
AcDbEntity
  8
0
  6
Continuous
 62
     7
100
AcDbLine
 10
162.2568167318881
 20
150.0795064486185
 30
0.0
 11
162.2568167318881
 21
136.5795064486186
 31
0.0
  0
LINE
  5
E5
330
1F
100
AcDbEntity
  8
0
  6
Continuous
 62
     7
100
AcDbLine
 10
162.2568167318881
 20
136.5795064486186
 30
0.0
 11
162.2568167318881
 21
117.5795064486186
 31
0.0
  0
LINE
  5
E6
330
1F
100
AcDbEntity
  8
0
  6
Continuous
 62
     7
100
AcDbLine
 10
69.69490434762491
 20
127.0795064486186
 30
0.0
 11
71.25681673188814
 21
129.7880250340461
 31
0.0
  0
LINE
  5
E7
330
1F
100
AcDbEntity
  8
0
  6
Continuous
 62
     7
100
AcDbLine
 10
71.25681673188814
 20
124.370987863191
 30
0.0
 11
69.69490434762491
 21
127.0795064486186
 31
0.0
  0
LINE
  5
E8
330
1F
100
AcDbEntity
  8
0
  6
Continuous
 62
     7
100
AcDbLine
 10
72.75681673188814
 20
143.3295064486186
 30
0.0
 11
72.75681673188814
 21
137.0795064486186
 31
0.0
  0
LINE
  5
E9
330
1F
100
AcDbEntity
  8
0
  6
Continuous
 62
     7
100
AcDbLine
 10
72.75681673188814
 20
117.0795064486186
 30
0.0
 11
72.75681673188814
 21
110.8295064486186
 31
0.0
  0
LINE
  5
EA
330
1F
100
AcDbEntity
  8
0
  6
Continuous
 62
     7
100
AcDbLine
 10
77.25681673188808
 20
118.2602097567911
 30
0.0
 11
77.25681673188814
 21
135.898803140446
 31
0.0
  0
LINE
  5
EB
330
1F
100
AcDbEntity
  8
0
  6
Continuous
 62
     7
100
AcDbLine
 10
68.75681673188814
 20
117.0795064486186
 30
0.0
 11
68.75681673188814
 21
110.8295064486186
 31
0.0
  0
LINE
  5
EC
330
1F
100
AcDbEntity
  8
0
  6
Continuous
 62
     7
100
AcDbLine
 10
68.75681673188808
 20
143.3295064486186
 30
0.0
 11
68.75681673188814
 21
137.0795064486186
 31
0.0
  0
LINE
  5
ED
330
1F
100
AcDbEntity
  8
0
  6
Continuous
 62
     7
100
AcDbLine
 10
68.75681673188814
 20
117.0795064486186
 30
0.0
 11
72.75681673188814
 21
117.0795064486186
 31
0.0
  0
LINE
  5
EE
330
1F
100
AcDbEntity
  8
0
  6
Continuous
 62
     7
100
AcDbLine
 10
66.75681673188808
 20
117.0795064486186
 30
0.0
 11
68.75681673188814
 21
117.0795064486186
 31
0.0
  0
LINE
  5
EF
330
1F
100
AcDbEntity
  8
0
  6
Continuous
 62
     7
100
AcDbLine
 10
71.25681673188814
 20
129.5795064486186
 30
0.0
 11
69.81515006522147
 21
127.0795064486186
 31
0.0
  0
LINE
  5
F0
330
1F
100
AcDbEntity
  8
0
  6
Continuous
 62
     7
100
AcDbLine
 10
72.6984833985548
 20
127.0795064486186
 30
0.0
 11
71.25681673188814
 21
129.5795064486186
 31
0.0
  0
LINE
  5
F1
330
1F
100
AcDbEntity
  8
0
  6
Continuous
 62
     7
100
AcDbLine
 10
72.8187291161513
 20
127.0795064486186
 30
0.0
 11
71.25681673188814
 21
124.370987863191
 31
0.0
  0
LINE
  5
F2
330
1F
100
AcDbEntity
  8
0
  6
Continuous
 62
     7
100
AcDbLine
 10
71.25681673188814
 20
129.7880250340461
 30
0.0
 11
72.8187291161513
 21
127.0795064486186
 31
0.0
  0
LINE
  5
F3
330
1F
100
AcDbEntity
  8
0
  6
Continuous
 62
     7
100
AcDbLine
 10
71.36098339855482
 20
128.5378397819519
 30
0.0
 11
71.36098339855477
 21
128.0170064486186
 31
0.0
  0
LINE
  5
F4
330
1F
100
AcDbEntity
  8
0
  6
Continuous
 62
     7
100
AcDbLine
 10
71.36098339855477
 20
128.0170064486186
 30
0.0
 11
71.72497381520719
 21
128.0170064486186
 31
0.0
  0
LINE
  5
F5
330
1F
100
AcDbEntity
  8
0
  6
Continuous
 62
     7
100
AcDbLine
 10
71.72497381520719
 20
128.0170064486186
 30
0.0
 11
71.45463463175747
 21
128.4858027204967
 31
0.0
  0
LINE
  5
F6
330
1F
100
AcDbEntity
  8
0
  6
Continuous
 62
     7
100
AcDbLine
 10
71.63510998940558
 20
128.5898768434071
 30
0.0
 11
71.99552665607223
 21
127.9648768434071
 31
0.0
  0
LINE
  5
F7
330
1F
100
AcDbEntity
  8
0
  6
Continuous
 62
     7
100
AcDbLine
 10
71.25681673188814
 20
124.5795064486186
 30
0.0
 11
72.6984833985548
 21
127.0795064486186
 31
0.0
  0
LINE
  5
F8
330
1F
100
AcDbEntity
  8
0
  6
Continuous
 62
     7
100
AcDbLine
 10
72.47608221162784
 20
127.0274693871634
 30
0.0
 11
71.99552665607223
 21
126.19413605383
 31
0.0
  0
LINE
  5
F9
330
1F
100
AcDbEntity
  8
0
  6
Continuous
 62
     7
100
AcDbLine
 10
71.8451127040961
 20
126.3503397819519
 30
0.0
 11
72.29560685397973
 21
127.1315435100738
 31
0.0
  0
LINE
  5
FA
330
1F
100
AcDbEntity
  8
0
  6
Continuous
 62
     7
100
AcDbLine
 10
69.81515006522147
 20
127.0795064486186
 30
0.0
 11
71.25681673188814
 21
124.5795064486186
 31
0.0
  0
LINE
  5
FB
330
1F
100
AcDbEntity
  8
0
  6
Continuous
 62
     7
100
AcDbLine
 10
70.29977185248993
 20
126.7414941337248
 30
0.0
 11
70.6890565069283
 21
127.0795064486186
 31
0.0
  0
LINE
  5
FC
330
1F
100
AcDbEntity
  8
0
  6
Continuous
 62
     7
100
AcDbLine
 10
71.00681673188808
 20
127.0795064486186
 30
0.0
 11
70.64691429889467
 21
126.7670064486186
 31
0.0
  0
LINE
  5
FD
330
1F
100
AcDbEntity
  8
0
  6
Continuous
 62
     7
100
AcDbLine
 10
70.6890565069283
 20
127.0795064486186
 30
0.0
 11
70.29977185248993
 21
127.4175187635123
 31
0.0
  0
LINE
  5
FE
330
1F
100
AcDbEntity
  8
0
  6
Continuous
 62
     7
100
AcDbLine
 10
70.78865964856902
 20
128.0170064486186
 30
0.0
 11
71.15265006522145
 21
128.0170064486186
 31
0.0
  0
LINE
  5
FF
330
1F
100
AcDbEntity
  8
0
  6
Continuous
 62
     7
100
AcDbLine
 10
70.64691429889467
 20
127.3920064486186
 30
0.0
 11
71.00681673188808
 21
127.0795064486186
 31
0.0
  0
LINE
  5
100
330
1F
100
AcDbEntity
  8
0
  6
Continuous
 62
     7
100
AcDbLine
 10
70.51810680770399
 20
127.9648768434071
 30
0.0
 11
70.87852347437064
 21
128.5898768434071
 31
0.0
  0
LINE
  5
101
330
1F
100
AcDbEntity
  8
0
  6
Continuous
 62
     7
100
AcDbLine
 10
71.05899883201874
 20
128.4858027204967
 30
0.0
 11
70.78865964856902
 21
128.0170064486186
 31
0.0
  0
LINE
  5
102
330
1F
100
AcDbEntity
  8
0
  6
Continuous
 62
     7
100
AcDbLine
 10
71.66501119947043
 20
126.5586731152852
 30
0.0
 11
70.36806670875023
 21
126.5586731152852
 31
0.0
  0
LINE
  5
103
330
1F
100
AcDbEntity
  8
0
  6
Continuous
 62
     7
100
AcDbLine
 10
70.60834448652804
 20
126.3503397819519
 30
0.0
 11
71.8451127040961
 21
126.3503397819519
 31
0.0
  0
LINE
  5
104
330
1F
100
AcDbEntity
  8
0
  6
Continuous
 62
     7
100
AcDbLine
 10
71.90528897724818
 20
126.1420064486186
 30
0.0
 11
70.60834448652804
 21
126.1420064486186
 31
0.0
  0
LINE
  5
105
330
1F
100
AcDbEntity
  8
0
  6
Continuous
 62
     7
100
AcDbLine
 10
70.84862226430579
 20
125.9336731152852
 30
0.0
 11
71.66501119947043
 21
125.9336731152852
 31
0.0
  0
LINE
  5
106
330
1F
100
AcDbEntity
  8
0
  6
Continuous
 62
     7
100
AcDbLine
 10
71.15265006522145
 20
128.0170064486186
 30
0.0
 11
71.15265006522145
 21
128.5378397819519
 31
0.0
  0
LINE
  5
107
330
1F
100
AcDbEntity
  8
0
  6
Continuous
 62
     7
100
AcDbLine
 10
70.64691429889467
 20
126.7670064486186
 30
0.0
 11
71.66501119947043
 21
126.7670064486186
 31
0.0
  0
LINE
  5
108
330
1F
100
AcDbEntity
  8
0
  6
Continuous
 62
     7
100
AcDbLine
 10
71.66501119947043
 20
125.7253397819519
 30
0.0
 11
70.84862226430579
 21
125.7253397819519
 31
0.0
  0
LINE
  5
109
330
1F
100
AcDbEntity
  8
0
  6
Continuous
 62
     7
100
AcDbLine
 10
72.14556675502598
 20
127.3920064486186
 30
0.0
 11
70.64691429889467
 21
127.3920064486186
 31
0.0
  0
LINE
  5
10A
330
1F
100
AcDbEntity
  8
0
  6
Continuous
 62
     7
100
AcDbLine
 10
70.36806670875023
 20
127.6003397819519
 30
0.0
 11
72.14556675502598
 21
127.6003397819519
 31
0.0
  0
LINE
  5
10B
330
1F
100
AcDbEntity
  8
0
  6
Continuous
 62
     7
100
AcDbLine
 10
71.90528897724823
 20
127.8086731152852
 30
0.0
 11
70.60834448652804
 21
127.8086731152852
 31
0.0
  0
LINE
  5
10C
330
1F
100
AcDbEntity
  8
0
  6
Continuous
 62
     7
100
AcDbLine
 10
72.75681673188814
 20
137.0795064486186
 30
0.0
 11
68.75681673188814
 21
137.0795064486186
 31
0.0
  0
LINE
  5
10D
330
1F
100
AcDbEntity
  8
0
  6
Continuous
 62
     7
100
AcDbLine
 10
68.75681673188814
 20
137.0795064486186
 30
0.0
 11
66.75681673188808
 21
137.0795064486186
 31
0.0
  0
LINE
  5
10E
330
1F
100
AcDbEntity
  8
0
  6
Continuous
 62
     7
100
AcDbLine
 10
66.25681673188808
 20
136.5795064486186
 30
0.0
 11
66.25681673188808
 21
150.0795064486185
 31
0.0
  0
LINE
  5
10F
330
1F
100
AcDbEntity
  8
0
  6
Continuous
 62
     7
100
AcDbLine
 10
151.2568167318881
 20
135.898803140446
 30
0.0
 11
151.2568167318881
 21
118.2602097567911
 31
0.0
  0
ARC
  5
110
330
1F
100
AcDbEntity
  8
1
  6
Continuous
 62
     7
100
AcDbCircle
 10
149.2568167318881
 20
111.0795064486186
 30
0.0
 40
2.300000000000097
100
AcDbArc
 50
0.0
 51
270.0
  0
ARC
  5
111
330
1F
100
AcDbEntity
  8
1
  6
Continuous
 62
     7
100
AcDbCircle
 10
79.25681673188814
 20
111.0795064486186
 30
0.0
 40
2.300000000000011
100
AcDbArc
 50
0.0
 51
270.0
  0
ARC
  5
112
330
1F
100
AcDbEntity
  8
1
  6
Continuous
 62
     7
100
AcDbCircle
 10
79.25681673188814
 20
143.0795064486185
 30
0.0
 40
2.300000000000011
100
AcDbArc
 50
0.0
 51
270.0
  0
ARC
  5
113
330
1F
100
AcDbEntity
  8
1
  6
Continuous
 62
     7
100
AcDbCircle
 10
149.2568167318881
 20
143.0795064486185
 30
0.0
 40
2.300000000000097
100
AcDbArc
 50
0.0
 51
270.0
  0
ARC
  5
114
330
1F
100
AcDbEntity
  8
0
  6
Continuous
 62
     7
100
AcDbCircle
 10
66.75681673188808
 20
117.5795064486186
 30
0.0
 40
0.5
100
AcDbArc
 50
180.0
 51
270.0
  0
ARC
  5
115
330
1F
100
AcDbEntity
  8
0
  6
Continuous
 62
     7
100
AcDbCircle
 10
212.3568167318133
 20
105.0795064486186
 30
0.0
 40
0.5
100
AcDbArc
 50
270.0
 51
0.0
  0
ARC
  5
116
330
1F
100
AcDbEntity
  8
0
  6
Continuous
 62
     7
100
AcDbCircle
 10
212.3568167318133
 20
136.5795064486186
 30
0.0
 40
0.5
100
AcDbArc
 50
0.0
 51
90.0
  0
ARC
  5
117
330
1F
100
AcDbEntity
  8
0
  6
Continuous
 62
     7
100
AcDbCircle
 10
212.3568167318133
 20
117.5795064486186
 30
0.0
 40
0.5
100
AcDbArc
 50
270.0
 51
0.0
  0
ARC
  5
118
330
1F
100
AcDbEntity
  8
0
  6
Continuous
 62
     7
100
AcDbCircle
 10
201.3568167318133
 20
98.57950644861855
 30
0.0
 40
0.5000000000000853
100
AcDbArc
 50
180.0
 51
270.0
  0
ARC
  5
119
330
1F
100
AcDbEntity
  8
0
  6
Continuous
 62
     7
100
AcDbCircle
 10
204.3568167318133
 20
98.57950644861855
 30
0.0
 40
0.5
100
AcDbArc
 50
270.0
 51
0.0
  0
ARC
  5
11A
330
1F
100
AcDbEntity
  8
0
  6
Continuous
 62
     7
100
AcDbCircle
 10
201.3568167318133
 20
155.5795064486185
 30
0.0
 40
0.5
100
AcDbArc
 50
90.0
 51
180.0
  0
ARC
  5
11B
330
1F
100
AcDbEntity
  8
0
  6
Continuous
 62
     7
100
AcDbCircle
 10
212.3568167318133
 20
149.0795064486186
 30
0.0
 40
0.5
100
AcDbArc
 50
0.0
 51
90.0
  0
ARC
  5
11C
330
1F
100
AcDbEntity
  8
0
  6
Continuous
 62
     7
100
AcDbCircle
 10
204.3568167318133
 20
155.5795064486185
 30
0.0
 40
0.5
100
AcDbArc
 50
0.0
 51
90.0
  0
ARC
  5
11D
330
1F
100
AcDbEntity
  8
0
  6
Continuous
 62
     7
100
AcDbCircle
 10
79.00681673188814
 20
143.3295064486186
 30
0.0
 40
10.24999999999991
100
AcDbArc
 50
90.0
 51
180.0
  0
ARC
  5
11E
330
1F
100
AcDbEntity
  8
0
  6
Continuous
 62
     7
100
AcDbCircle
 10
149.5068167318881
 20
110.8295064486186
 30
0.0
 40
10.25
100
AcDbArc
 50
270.0
 51
0.0
  0
ARC
  5
11F
330
1F
100
AcDbEntity
  8
0
  6
Continuous
 62
     7
100
AcDbCircle
 10
79.25681673188814
 20
111.0795064486186
 30
0.0
 40
6.249999999999978
100
AcDbArc
 50
356.0454278779084
 51
97.92814176620247
  0
ARC
  5
120
330
1F
100
AcDbEntity
  8
0
  6
Continuous
 62
     7
100
AcDbCircle
 10
161.7568167318881
 20
117.5795064486186
 30
0.0
 40
0.5
100
AcDbArc
 50
270.0
 51
0.0
  0
ARC
  5
121
330
1F
100
AcDbEntity
  8
0
  6
Continuous
 62
     7
100
AcDbCircle
 10
86.48955480263288
 20
110.5795064486186
 30
0.0
 40
1.000000000000051
100
AcDbArc
 50
176.0454278779142
 51
270.0
  0
ARC
  5
122
330
1F
100
AcDbEntity
  8
0
  6
Continuous
 62
     7
100
AcDbCircle
 10
149.2568167318881
 20
111.0795064486186
 30
0.0
 40
6.249999999999974
100
AcDbArc
 50
82.07185823379726
 51
183.9545721220916
  0
ARC
  5
123
330
1F
100
AcDbEntity
  8
0
  6
Continuous
 62
     7
100
AcDbCircle
 10
142.0240786611435
 20
110.5795064486186
 30
0.0
 40
1.0
100
AcDbArc
 50
270.0
 51
3.95457212208627
  0
ARC
  5
124
330
1F
100
AcDbEntity
  8
0
  6
Continuous
 62
     7
100
AcDbCircle
 10
79.00681673188814
 20
110.8295064486186
 30
0.0
 40
6.25
100
AcDbArc
 50
180.0
 51
270.0
  0
ARC
  5
125
330
1F
100
AcDbEntity
  8
0
  6
Continuous
 62
     7
100
AcDbCircle
 10
149.5068167318881
 20
110.8295064486186
 30
0.0
 40
6.25
100
AcDbArc
 50
270.0
 51
0.0
  0
ARC
  5
126
330
1F
100
AcDbEntity
  8
0
  6
Continuous
 62
     7
100
AcDbCircle
 10
79.25681673188814
 20
143.0795064486185
 30
0.0
 40
6.24999999999997
100
AcDbArc
 50
262.0718582337975
 51
3.95457212209149
  0
ARC
  5
127
330
1F
100
AcDbEntity
  8
0
  6
Continuous
 62
     7
100
AcDbCircle
 10
149.5068167318881
 20
143.3295064486186
 30
0.0
 40
10.25
100
AcDbArc
 50
0.0
 51
90.0
  0
ARC
  5
128
330
1F
100
AcDbEntity
  8
0
  6
Continuous
 62
     7
100
AcDbCircle
 10
149.5068167318881
 20
143.3295064486186
 30
0.0
 40
6.25
100
AcDbArc
 50
0.0
 51
90.0
  0
ARC
  5
129
330
1F
100
AcDbEntity
  8
0
  6
Continuous
 62
     7
100
AcDbCircle
 10
142.0240786611435
 20
143.5795064486185
 30
0.0
 40
0.9999999999999385
100
AcDbArc
 50
356.0454278779129
 51
90.0
  0
ARC
  5
12A
330
1F
100
AcDbEntity
  8
0
  6
Continuous
 62
     7
100
AcDbCircle
 10
86.48955480263288
 20
143.5795064486185
 30
0.0
 40
1.0
100
AcDbArc
 50
90.0
 51
183.9545721220866
  0
ARC
  5
12B
330
1F
100
AcDbEntity
  8
0
  6
Continuous
 62
     7
100
AcDbCircle
 10
156.2568167318881
 20
104.0795064486186
 30
0.0
 40
6.000000000000043
100
AcDbArc
 50
270.0
 51
0.0
  0
ARC
  5
12C
330
1F
100
AcDbEntity
  8
0
  6
Continuous
 62
     7
100
AcDbCircle
 10
161.7568167318881
 20
136.5795064486186
 30
0.0
 40
0.5
100
AcDbArc
 50
0.0
 51
90.0
  0
ARC
  5
12D
330
1F
100
AcDbEntity
  8
0
  6
Continuous
 62
     7
100
AcDbCircle
 10
79.00681673188814
 20
143.3295064486186
 30
0.0
 40
6.249999999999915
100
AcDbArc
 50
90.0
 51
180.0
  0
ARC
  5
12E
330
1F
100
AcDbEntity
  8
0
  6
Continuous
 62
     7
100
AcDbCircle
 10
79.00681673188814
 20
110.8295064486186
 30
0.0
 40
10.25
100
AcDbArc
 50
180.0
 51
270.0
  0
ARC
  5
12F
330
1F
100
AcDbEntity
  8
0
  6
Continuous
 62
     7
100
AcDbCircle
 10
78.25681673188814
 20
118.2602097567911
 30
0.0
 40
1.000000000000057
100
AcDbArc
 50
180.0
 51
277.9281417662008
  0
ARC
  5
130
330
1F
100
AcDbEntity
  8
0
  6
Continuous
 62
     7
100
AcDbCircle
 10
78.25681673188814
 20
135.898803140446
 30
0.0
 40
0.9999999999999911
100
AcDbArc
 50
82.07185823379919
 51
180.0
  0
ARC
  5
131
330
1F
100
AcDbEntity
  8
0
  6
Continuous
 62
     7
100
AcDbCircle
 10
71.54487231058152
 20
128.5378397819519
 30
0.0
 40
0.1041666666666679
100
AcDbArc
 50
29.97061564997908
 51
209.9706156499791
  0
ARC
  5
132
330
1F
100
AcDbEntity
  8
0
  6
Continuous
 62
     7
100
AcDbCircle
 10
71.90528897724823
 20
127.9128397819519
 30
0.0
 40
0.1041666666666998
100
AcDbArc
 50
270.0
 51
29.9706156499947
  0
ARC
  5
133
330
1F
100
AcDbEntity
  8
0
  6
Continuous
 62
     7
100
AcDbCircle
 10
72.14556675502598
 20
127.4961731152852
 30
0.0
 40
0.1041666666666003
100
AcDbArc
 50
270.0
 51
90.0
  0
ARC
  5
134
330
1F
100
AcDbEntity
  8
0
  6
Continuous
 62
     7
100
AcDbCircle
 10
71.66501119947043
 20
125.8295064486186
 30
0.0
 40
0.1041666666666998
100
AcDbArc
 50
270.0
 51
90.0
  0
ARC
  5
135
330
1F
100
AcDbEntity
  8
0
  6
Continuous
 62
     7
100
AcDbCircle
 10
71.90528897724818
 20
126.2461731152852
 30
0.0
 40
0.1041666666666003
100
AcDbArc
 50
270.0
 51
330.0293843500141
  0
ARC
  5
136
330
1F
100
AcDbEntity
  8
0
  6
Continuous
 62
     7
100
AcDbCircle
 10
71.66501119947043
 20
126.6628397819519
 30
0.0
 40
0.1041666666666998
100
AcDbArc
 50
270.0
 51
90.0
  0
ARC
  5
137
330
1F
100
AcDbEntity
  8
0
  6
Continuous
 62
     7
100
AcDbCircle
 10
72.38584453280373
 20
127.0795064486186
 30
0.0
 40
0.1041666666667172
100
AcDbArc
 50
330.0293843500365
 51
150.0293843500053
  0
ARC
  5
138
330
1F
100
AcDbEntity
  8
0
  6
Continuous
 62
     7
100
AcDbCircle
 10
70.84862226430579
 20
125.8295064486186
 30
0.0
 40
0.1041666666666003
100
AcDbArc
 50
90.0
 51
270.0
  0
ARC
  5
139
330
1F
100
AcDbEntity
  8
0
  6
Continuous
 62
     7
100
AcDbCircle
 10
70.60834448652804
 20
126.2461731152852
 30
0.0
 40
0.1041666666666998
100
AcDbArc
 50
90.0
 51
270.0
  0
ARC
  5
13A
330
1F
100
AcDbEntity
  8
0
  6
Continuous
 62
     7
100
AcDbCircle
 10
70.36806670875023
 20
126.6628397819519
 30
0.0
 40
0.1041666666666016
100
AcDbArc
 50
130.9674842214571
 51
270.0
  0
ARC
  5
13B
330
1F
100
AcDbEntity
  8
0
  6
Continuous
 62
     7
100
AcDbCircle
 10
71.25681673188814
 20
128.5378397819519
 30
0.0
 40
0.1041666666666856
100
AcDbArc
 50
0.0
 51
180.0
  0
ARC
  5
13C
330
1F
100
AcDbEntity
  8
0
  6
Continuous
 62
     7
100
AcDbCircle
 10
70.60834448652804
 20
127.9128397819519
 30
0.0
 40
0.1041666666666679
100
AcDbArc
 50
150.0293843500209
 51
270.0
  0
ARC
  5
13D
330
1F
100
AcDbEntity
  8
0
  6
Continuous
 62
     7
100
AcDbCircle
 10
70.96876115319469
 20
128.5378397819519
 30
0.0
 40
0.1041666666666679
100
AcDbArc
 50
330.0293843500209
 51
150.0293843500209
  0
ARC
  5
13E
330
1F
100
AcDbEntity
  8
0
  6
Continuous
 62
     7
100
AcDbCircle
 10
70.36806670875023
 20
127.4961731152852
 30
0.0
 40
0.1041666666666998
100
AcDbArc
 50
90.0
 51
229.0325157785429
  0
ARC
  5
13F
330
1F
100
AcDbEntity
  8
0
  6
Continuous
 62
     7
100
AcDbCircle
 10
66.75681673188808
 20
136.5795064486186
 30
0.0
 40
0.5
100
AcDbArc
 50
90.0
 51
180.0
  0
ARC
  5
140
330
1F
100
AcDbEntity
  8
0
  6
Continuous
 62
     7
100
AcDbCircle
 10
72.25681673188808
 20
104.0795064486186
 30
0.0
 40
6.0
100
AcDbArc
 50
180.0
 51
270.0
  0
ARC
  5
141
330
1F
100
AcDbEntity
  8
0
  6
Continuous
 62
     7
100
AcDbCircle
 10
149.2568167318881
 20
143.0795064486185
 30
0.0
 40
6.249999999999948
100
AcDbArc
 50
176.0454278779085
 51
277.9281417662028
  0
ARC
  5
142
330
1F
100
AcDbEntity
  8
0
  6
Continuous
 62
     7
100
AcDbCircle
 10
150.2568167318881
 20
118.2602097567911
 30
0.0
 40
0.9999999999999872
100
AcDbArc
 50
262.0718582338008
 51
0.0
  0
ARC
  5
143
330
1F
100
AcDbEntity
  8
0
  6
Continuous
 62
     7
100
AcDbCircle
 10
150.2568167318881
 20
135.898803140446
 30
0.0
 40
1.0
100
AcDbArc
 50
0.0
 51
97.9281417661992
  0
ARC
  5
144
330
1F
100
AcDbEntity
  8
0
  6
Continuous
 62
     7
100
AcDbCircle
 10
72.25681673188808
 20
150.0795064486185
 30
0.0
 40
6.0
100
AcDbArc
 50
90.0
 51
180.0
  0
ARC
  5
145
330
1F
100
AcDbEntity
  8
0
  6
Continuous
 62
     7
100
AcDbCircle
 10
156.2568167318881
 20
150.0795064486185
 30
0.0
 40
6.0
100
AcDbArc
 50
0.0
 51
90.0
  0
CIRCLE
  5
146
330
1F
100
AcDbEntity
  8
0
  6
Continuous
 62
     7
100
AcDbCircle
 10
149.2568167318881
 20
111.0795064486186
 30
0.0
 40
2.0
  0
CIRCLE
  5
147
330
1F
100
AcDbEntity
  8
0
  6
Continuous
 62
     7
100
AcDbCircle
 10
79.25681673188814
 20
111.0795064486186
 30
0.0
 40
2.0
  0
CIRCLE
  5
148
330
1F
100
AcDbEntity
  8
0
  6
Continuous
 62
     7
100
AcDbCircle
 10
79.25681673188814
 20
143.0795064486185
 30
0.0
 40
2.0
  0
CIRCLE
  5
149
330
1F
100
AcDbEntity
  8
0
  6
Continuous
 62
     7
100
AcDbCircle
 10
149.2568167318881
 20
143.0795064486185
 30
0.0
 40
2.0
  0
DIMENSION
  5
155
330
1F
100
AcDbEntity
  8
1
100
AcDbDimension
  2
*D3
 10
56.25681673188808
 20
143.0795064486185
 30
0.0
 11
52.75681673188808
 21
127.0795064486185
 31
0.0
 70
    32
  1
<>
 71
     5
 42
-1.0
 53
90.0
  3
ME10_DIM_10
100
AcDbAlignedDimension
 13
75.05681673188815
 23
111.0795064486186
 33
0.0
 14
75.05681673188815
 24
143.0795064486185
 34
0.0
 50
90.0
100
AcDbRotatedDimension
  0
DIMENSION
  5
160
330
1F
100
AcDbEntity
  8
1
100
AcDbDimension
  2
*D4
 10
66.2568167318881
 20
71.07950644861856
 30
0.0
 11
114.2568167318881
 21
74.57950644861856
 31
0.0
 70
    32
  1
<>
 71
     5
 42
-1.0
 53
0.00013888888889
  3
ME10_DIM_11
100
AcDbAlignedDimension
 13
162.2568167318881
 23
104.0795064486186
 33
0.0
 14
66.25681673188808
 24
104.0795064486186
 34
0.0
100
AcDbRotatedDimension
  0
DIMENSION
  5
16B
330
1F
100
AcDbEntity
  8
1
100
AcDbDimension
  2
*D5
 10
79.2568167318881
 20
83.07950644861856
 30
0.0
 11
114.2568167318881
 21
86.57950644861856
 31
0.0
 70
    32
  1
<>
 71
     5
 42
-1.0
 53
0.00013888888889
  3
ME10_DIM_12
100
AcDbAlignedDimension
 13
149.2568167318881
 23
106.8795064486186
 33
0.0
 14
79.25681673188814
 24
106.8795064486186
 34
0.0
100
AcDbRotatedDimension
  0
DIMENSION
  5
176
330
1F
100
AcDbEntity
  8
1
100
AcDbDimension
  2
*D6
 10
200.8568167318134
 20
83.07950644861856
 30
0.0
 11
206.8568167318133
 21
86.57950644861856
 31
0.0
 70
    32
  1
<>
 71
     5
 42
-1.0
 53
0.00013888888889
  3
ME10_DIM_13
100
AcDbAlignedDimension
 13
212.8568167318133
 23
105.0795064486186
 33
0.0
 14
200.8568167318132
 24
98.57950644861855
 34
0.0
100
AcDbRotatedDimension
  0
DIMENSION
  5
181
330
1F
100
AcDbEntity
  8
1
100
AcDbDimension
  2
*D7
 10
227.8568167318133
 20
98.07950644861852
 30
0.0
 11
224.3568167318133
 21
127.0795064486185
 31
0.0
 70
    32
  1
<>
 71
     5
 42
-1.0
 53
90.0
  3
ME10_DIM_14
100
AcDbAlignedDimension
 13
204.3568167318133
 23
156.0795064486185
 33
0.0
 14
204.3568167318133
 24
98.07950644861855
 34
0.0
 50
90.0
100
AcDbRotatedDimension
  0
INSERT
  5
18A
330
1F
100
AcDbEntity
  8
1
100
AcDbBlockReference
  2
*D8
 10
0.0
 20
0.0
 30
0.0
  0
ENDSEC
  0
SECTION
  2
OBJECTS
  0
DICTIONARY
  5
C
330
0
100
AcDbDictionary
281
     1
  3
ACAD_GROUP
350
D
  3
ACAD_LAYOUT
350
1A
  3
ACAD_MATERIAL
350
3B
  3
ACAD_MLEADERSTYLE
350
18D
  3
ACAD_MLINESTYLE
350
17
  3
ACAD_PLOTSETTINGS
350
19
  3
ACAD_PLOTSTYLENAME
350
E
  3
ACAD_VISUALSTYLE
350
2A
  3
AcDbVariableDictionary
350
18B
  0
DICTIONARY
  5
D
102
{ACAD_REACTORS
330
C
102
}
330
C
100
AcDbDictionary
281
     1
  0
DICTIONARY
  5
1A
102
{ACAD_REACTORS
330
C
102
}
330
C
100
AcDbDictionary
281
     1
  3
Layout1
350
1E
  3
Layout2
350
26
  3
Model
350
22
  0
DICTIONARY
  5
3B
102
{ACAD_REACTORS
330
C
102
}
330
C
100
AcDbDictionary
281
     1
  3
ByBlock
350
3D
  3
ByLayer
350
3C
  3
Global
350
3E
  0
DICTIONARY
  5
18D
102
{ACAD_REACTORS
330
C
102
}
330
C
100
AcDbDictionary
281
     1
  0
DICTIONARY
  5
17
102
{ACAD_REACTORS
330
C
102
}
330
C
100
AcDbDictionary
281
     1
  3
Standard
350
18
  0
DICTIONARY
  5
19
102
{ACAD_REACTORS
330
C
102
}
330
C
100
AcDbDictionary
281
     1
  0
ACDBDICTIONARYWDFLT
  5
E
102
{ACAD_REACTORS
330
C
102
}
330
C
100
AcDbDictionary
281
     1
  3
Normal
350
F
100
AcDbDictionaryWithDefault
340
F
  0
DICTIONARY
  5
2A
102
{ACAD_REACTORS
330
C
102
}
330
C
100
AcDbDictionary
281
     1
  3
2dWireframe
350
2F
  3
3D Hidden
350
31
  3
3dWireframe
350
30
  3
Basic
350
32
  3
Brighten
350
36
  3
ColorChange
350
3A
  3
Conceptual
350
34
  3
Dim
350
35
  3
Facepattern
350
39
  3
Flat
350
2B
  3
FlatWithEdges
350
2C
  3
Gouraud
350
2D
  3
GouraudWithEdges
350
2E
  3
Linepattern
350
38
  3
Realistic
350
33
  3
Thicken
350
37
  0
DICTIONARY
  5
18B
102
{ACAD_REACTORS
330
C
102
}
330
C
100
AcDbDictionary
281
     1
  3
DIMASSOC
350
18E
  3
HIDETEXT
350
18F
  0
LAYOUT
  5
1E
102
{ACAD_REACTORS
330
1A
102
}
330
1A
100
AcDbPlotSettings
  1

  2
none_device
  4

  6

 40
0.0
 41
0.0
 42
0.0
 43
0.0
 44
0.0
 45
0.0
 46
0.0
 47
0.0
 48
0.0
 49
0.0
140
0.0
141
0.0
142
1.0
143
1.0
 70
   688
 72
     0
 73
     0
 74
     5
  7

 75
    16
147
1.0
148
0.0
149
0.0
100
AcDbLayout
  1
Layout1
 70
     1
 71
     1
 10
0.0
 20
0.0
 11
12.0
 21
9.0
 12
0.0
 22
0.0
 32
0.0
 14
1.00000000000000E+20
 24
1.00000000000000E+20
 34
1.00000000000000E+20
 15
-1.00000000000000E+20
 25
-1.00000000000000E+20
 35
-1.00000000000000E+20
146
0.0
 13
0.0
 23
0.0
 33
0.0
 16
1.0
 26
0.0
 36
0.0
 17
0.0
 27
1.0
 37
0.0
 76
     0
330
1B
  0
LAYOUT
  5
26
102
{ACAD_REACTORS
330
1A
102
}
330
1A
100
AcDbPlotSettings
  1

  2
none_device
  4

  6

 40
0.0
 41
0.0
 42
0.0
 43
0.0
 44
0.0
 45
0.0
 46
0.0
 47
0.0
 48
0.0
 49
0.0
140
0.0
141
0.0
142
1.0
143
1.0
 70
   688
 72
     0
 73
     0
 74
     5
  7

 75
    16
147
1.0
148
0.0
149
0.0
100
AcDbLayout
  1
Layout2
 70
     1
 71
     2
 10
0.0
 20
0.0
 11
0.0
 21
0.0
 12
0.0
 22
0.0
 32
0.0
 14
0.0
 24
0.0
 34
0.0
 15
0.0
 25
0.0
 35
0.0
146
0.0
 13
0.0
 23
0.0
 33
0.0
 16
1.0
 26
0.0
 36
0.0
 17
0.0
 27
1.0
 37
0.0
 76
     0
330
23
  0
LAYOUT
  5
22
102
{ACAD_REACTORS
330
1A
102
}
330
1A
100
AcDbPlotSettings
  1

  2
none_device
  4

  6

 40
0.0
 41
0.0
 42
0.0
 43
0.0
 44
0.0
 45
0.0
 46
0.0
 47
0.0
 48
0.0
 49
0.0
140
0.0
141
0.0
142
1.0
143
1.0
 70
  1712
 72
     0
 73
     0
 74
     0
  7

 75
     0
147
1.0
148
0.0
149
0.0
100
AcDbLayout
  1
Model
 70
     1
 71
     0
 10
0.0
 20
0.0
 11
12.0
 21
9.0
 12
0.0
 22
0.0
 32
0.0
 14
0.0
 24
0.0
 34
0.0
 15
297.0000000000001
 25
210.0000000000001
 35
0.0
146
0.0
 13
0.0
 23
0.0
 33
0.0
 16
1.0
 26
0.0
 36
0.0
 17
0.0
 27
1.0
 37
0.0
 76
     0
330
1F
331
29
  0
MATERIAL
  5
3D
102
{ACAD_REACTORS
330
3B
102
}
102
{ACAD_XDICTIONARY
360
1B2
102
}
330
3B
100
AcDbMaterial
  1
ByBlock
  0
MATERIAL
  5
3C
102
{ACAD_REACTORS
330
3B
102
}
102
{ACAD_XDICTIONARY
360
1B0
102
}
330
3B
100
AcDbMaterial
  1
ByLayer
  0
MATERIAL
  5
3E
102
{ACAD_REACTORS
330
3B
102
}
102
{ACAD_XDICTIONARY
360
1B4
102
}
330
3B
100
AcDbMaterial
  1
Global
  0
MLINESTYLE
  5
18
102
{ACAD_REACTORS
330
17
102
}
330
17
100
AcDbMlineStyle
  2
Standard
 70
     0
  3

 62
   256
 51
90.0
 52
90.0
 71
     2
 49
0.5
 62
   256
  6
BYLAYER
 49
-0.5
 62
   256
  6
BYLAYER
  0
ACDBPLACEHOLDER
  5
F
102
{ACAD_REACTORS
330
E
102
}
330
E
  0
VISUALSTYLE
  5
2F
102
{ACAD_REACTORS
330
2A
102
}
102
{ACAD_XDICTIONARY
360
198
102
}
330
2A
100
AcDbVisualStyle
  2
2dWireframe
 70
     4
 71
     0
 72
     2
 73
     0
 90
        0
 40
-0.6
 41
-30.0
 62
     5
 63
     7
 74
     1
 91
        4
 64
     7
 65
   257
 75
     1
175
     1
 42
1.0
 92
        0
 66
   257
 43
1.0
 76
     1
 77
     6
 78
     2
 67
     7
 79
     5
170
     0
171
     0
290
     0
174
     0
 93
        1
 44
0.0
173
     0
291
     0
 45
0.0
1001
ACAD
1000
AcDbSavedByObjectVersion
1070
     0
  0
VISUALSTYLE
  5
31
102
{ACAD_REACTORS
330
2A
102
}
102
{ACAD_XDICTIONARY
360
19C
102
}
330
2A
100
AcDbVisualStyle
  2
3D Hidden
 70
     6
 71
     1
 72
     2
 73
     2
 90
        0
 40
-0.6
 41
-30.0
 62
     5
 63
     7
 74
     2
 91
        2
 64
     7
 65
   257
 75
     2
175
     1
 42
40.0
 92
        0
 66
   257
 43
1.0
 76
     1
 77
     6
 78
     2
 67
     7
 79
     3
170
     0
171
     0
290
     0
174
     0
 93
        1
 44
0.0
173
     0
291
     0
 45
0.0
1001
ACAD
1000
AcDbSavedByObjectVersion
1070
     0
  0
VISUALSTYLE
  5
30
102
{ACAD_REACTORS
330
2A
102
}
102
{ACAD_XDICTIONARY
360
19A
102
}
330
2A
100
AcDbVisualStyle
  2
3dWireframe
 70
     5
 71
     0
 72
     2
 73
     0
 90
        0
 40
-0.6
 41
-30.0
 62
     5
 63
     7
 74
     1
 91
        4
 64
     7
 65
   257
 75
     1
175
     1
 42
1.0
 92
        0
 66
   257
 43
1.0
 76
     1
 77
     6
 78
     2
 67
     7
 79
     5
170
     0
171
     0
290
     0
174
     0
 93
        1
 44
0.0
173
     0
291
     0
 45
0.0
1001
ACAD
1000
AcDbSavedByObjectVersion
1070
     0
  0
VISUALSTYLE
  5
32
102
{ACAD_REACTORS
330
2A
102
}
102
{ACAD_XDICTIONARY
360
19E
102
}
330
2A
100
AcDbVisualStyle
  2
Basic
 70
     7
 71
     1
 72
     0
 73
     1
 90
        0
 40
-0.6
 41
-30.0
 62
     5
 63
     7
 74
     0
 91
        4
 64
     7
 65
   257
 75
     1
175
     1
 42
1.0
 92
        8
 66
     7
 43
1.0
 76
     1
 77
     6
 78
     2
 67
     7
 79
     5
170
     0
171
     0
290
     0
174
     0
 93
        1
 44
0.0
173
     0
291
     1
 45
0.0
1001
ACAD
1000
AcDbSavedByObjectVersion
1070
     0
  0
VISUALSTYLE
  5
36
102
{ACAD_REACTORS
330
2A
102
}
102
{ACAD_XDICTIONARY
360
1A6
102
}
330
2A
100
AcDbVisualStyle
  2
Brighten
 70
    12
 71
     2
 72
     2
 73
     0
 90
        0
 40
-0.6
 41
-30.0
 62
     5
 63
     7
 74
     1
 91
        4
 64
     7
 65
   257
 75
     1
175
     1
 42
1.0
 92
        8
 66
     7
 43
1.0
 76
     1
 77
     6
 78
     2
 67
     7
 79
     5
170
     0
171
     0
290
     0
174
     0
 93
        1
 44
50.0
173
     0
291
     1
 45
0.0
1001
ACAD
1000
AcDbSavedByObjectVersion
1070
     0
  0
VISUALSTYLE
  5
3A
102
{ACAD_REACTORS
330
2A
102
}
102
{ACAD_XDICTIONARY
360
1AE
102
}
330
2A
100
AcDbVisualStyle
  2
ColorChange
 70
    16
 71
     2
 72
     2
 73
     3
 90
        0
 40
-0.6
 41
-30.0
 62
     5
 63
     8
 74
     1
 91
        4
 64
     7
 65
   257
 75
     1
175
     1
 42
1.0
 92
        8
 66
     8
 43
1.0
 76
     1
 77
     6
 78
     2
 67
     7
 79
     5
170
     0
171
     0
290
     0
174
     0
 93
        1
 44
0.0
173
     0
291
     1
 45
0.0
1001
ACAD
1000
AcDbSavedByObjectVersion
1070
     0
  0
VISUALSTYLE
  5
34
102
{ACAD_REACTORS
330
2A
102
}
102
{ACAD_XDICTIONARY
360
1A2
102
}
330
2A
100
AcDbVisualStyle
  2
Conceptual
 70
     9
 71
     3
 72
     2
 73
     0
 90
        0
 40
-0.6
 41
-30.0
 62
     5
 63
     7
 74
     2
 91
        2
 64
     7
 65
   257
 75
     1
175
     1
 42
40.0
 92
        8
 66
     7
 43
1.0
 76
     1
 77
     6
 78
     2
 67
     7
 79
     3
170
     0
171
     0
290
     0
174
     0
 93
        1
 44
0.0
173
     0
291
     0
 45
0.0
1001
ACAD
1000
AcDbSavedByObjectVersion
1070
     0
  0
VISUALSTYLE
  5
35
102
{ACAD_REACTORS
330
2A
102
}
102
{ACAD_XDICTIONARY
360
1A4
102
}
330
2A
100
AcDbVisualStyle
  2
Dim
 70
    11
 71
     2
 72
     2
 73
     0
 90
        0
 40
-0.6
 41
-30.0
 62
     5
 63
     7
 74
     1
 91
        4
 64
     7
 65
   257
 75
     1
175
     1
 42
1.0
 92
        8
 66
     7
 43
1.0
 76
     1
 77
     6
 78
     2
 67
     7
 79
     5
170
     0
171
     0
290
     0
174
     0
 93
        1
 44
-50.0
173
     0
291
     1
 45
0.0
1001
ACAD
1000
AcDbSavedByObjectVersion
1070
     0
  0
VISUALSTYLE
  5
39
102
{ACAD_REACTORS
330
2A
102
}
102
{ACAD_XDICTIONARY
360
1AC
102
}
330
2A
100
AcDbVisualStyle
  2
Facepattern
 70
    15
 71
     2
 72
     2
 73
     0
 90
        0
 40
-0.6
 41
-30.0
 62
     5
 63
     7
 74
     1
 91
        4
 64
     7
 65
   257
 75
     1
175
     1
 42
1.0
 92
        8
 66
     7
 43
1.0
 76
     1
 77
     6
 78
     2
 67
     7
 79
     5
170
     0
171
     0
290
     0
174
     0
 93
        1
 44
0.0
173
     0
291
     1
 45
0.0
1001
ACAD
1000
AcDbSavedByObjectVersion
1070
     0
  0
VISUALSTYLE
  5
2B
102
{ACAD_REACTORS
330
2A
102
}
102
{ACAD_XDICTIONARY
360
190
102
}
330
2A
100
AcDbVisualStyle
  2
Flat
 70
     0
 71
     2
 72
     1
 73
     1
 90
        2
 40
-0.6
 41
30.0
 62
     5
 63
     7
 74
     0
 91
        4
 64
     7
 65
   257
 75
     1
175
     1
 42
1.0
 92
        8
 66
     7
 43
1.0
 76
     1
 77
     6
 78
     2
 67
     7
 79
     5
170
     0
171
     0
290
     0
174
     0
 93
       13
 44
0.0
173
     0
291
     1
 45
0.0
1001
ACAD
1000
AcDbSavedByObjectVersion
1070
     0
  0
VISUALSTYLE
  5
2C
102
{ACAD_REACTORS
330
2A
102
}
102
{ACAD_XDICTIONARY
360
192
102
}
330
2A
100
AcDbVisualStyle
  2
FlatWithEdges
 70
     1
 71
     2
 72
     1
 73
     1
 90
        2
 40
-0.6
 41
30.0
 62
     5
 63
     7
 74
     1
 91
        4
 64
     7
 65
   257
 75
     1
175
     1
 42
1.0
 92
        0
 66
   257
 43
1.0
 76
     1
 77
     6
 78
     2
 67
     7
 79
     5
170
     0
171
     0
290
     0
174
     0
 93
       13
 44
0.0
173
     0
291
     1
 45
0.0
1001
ACAD
1000
AcDbSavedByObjectVersion
1070
     0
  0
VISUALSTYLE
  5
2D
102
{ACAD_REACTORS
330
2A
102
}
102
{ACAD_XDICTIONARY
360
194
102
}
330
2A
100
AcDbVisualStyle
  2
Gouraud
 70
     2
 71
     2
 72
     2
 73
     1
 90
        2
 40
-0.6
 41
30.0
 62
     5
 63
     7
 74
     0
 91
        4
 64
     7
 65
   257
 75
     1
175
     1
 42
1.0
 92
        0
 66
     7
 43
1.0
 76
     1
 77
     6
 78
     2
 67
     7
 79
     5
170
     0
171
     0
290
     0
174
     0
 93
       13
 44
0.0
173
     0
291
     1
 45
0.0
1001
ACAD
1000
AcDbSavedByObjectVersion
1070
     0
  0
VISUALSTYLE
  5
2E
102
{ACAD_REACTORS
330
2A
102
}
102
{ACAD_XDICTIONARY
360
196
102
}
330
2A
100
AcDbVisualStyle
  2
GouraudWithEdges
 70
     3
 71
     2
 72
     2
 73
     1
 90
        2
 40
-0.6
 41
30.0
 62
     5
 63
     7
 74
     1
 91
        4
 64
     7
 65
   257
 75
     1
175
     1
 42
1.0
 92
        0
 66
   257
 43
1.0
 76
     1
 77
     6
 78
     2
 67
     7
 79
     5
170
     0
171
     0
290
     0
174
     0
 93
       13
 44
0.0
173
     0
291
     1
 45
0.0
1001
ACAD
1000
AcDbSavedByObjectVersion
1070
     0
  0
VISUALSTYLE
  5
38
102
{ACAD_REACTORS
330
2A
102
}
102
{ACAD_XDICTIONARY
360
1AA
102
}
330
2A
100
AcDbVisualStyle
  2
Linepattern
 70
    14
 71
     2
 72
     2
 73
     0
 90
        0
 40
-0.6
 41
-30.0
 62
     5
 63
     7
 74
     1
 91
        4
 64
     7
 65
   257
 75
     7
175
     7
 42
1.0
 92
        8
 66
     7
 43
1.0
 76
     1
 77
     6
 78
     2
 67
     7
 79
     5
170
     0
171
     0
290
     0
174
     0
 93
        1
 44
0.0
173
     0
291
     1
 45
0.0
1001
ACAD
1000
AcDbSavedByObjectVersion
1070
     0
  0
VISUALSTYLE
  5
33
102
{ACAD_REACTORS
330
2A
102
}
102
{ACAD_XDICTIONARY
360
1A0
102
}
330
2A
100
AcDbVisualStyle
  2
Realistic
 70
     8
 71
     2
 72
     2
 73
     0
 90
        0
 40
-0.6
 41
-30.0
 62
     5
 63
     7
 74
     1
 91
        0
 64
     7
 65
   257
 75
     1
175
     1
 42
1.0
 92
        8
 66
     8
 43
1.0
 76
     1
 77
     6
 78
     2
 67
     7
 79
     5
170
     0
171
     0
290
     0
174
     0
 93
       13
 44
0.0
173
     0
291
     0
 45
0.0
1001
ACAD
1000
AcDbSavedByObjectVersion
1070
     0
  0
VISUALSTYLE
  5
37
102
{ACAD_REACTORS
330
2A
102
}
102
{ACAD_XDICTIONARY
360
1A8
102
}
330
2A
100
AcDbVisualStyle
  2
Thicken
 70
    13
 71
     2
 72
     2
 73
     0
 90
        0
 40
-0.6
 41
-30.0
 62
     5
 63
     7
 74
     1
 91
        4
 64
     7
 65
   257
 75
     1
175
     1
 42
1.0
 92
       12
 66
     7
 43
1.0
 76
     1
 77
     6
 78
     2
 67
     7
 79
     5
170
     0
171
     0
290
     0
174
     0
 93
        1
 44
0.0
173
     0
291
     1
 45
0.0
1001
ACAD
1000
AcDbSavedByObjectVersion
1070
     0
  0
DICTIONARYVAR
  5
18E
102
{ACAD_REACTORS
330
18B
102
}
330
18B
100
DictionaryVariables
280
     0
  1
2
  0
DICTIONARYVAR
  5
18F
102
{ACAD_REACTORS
330
18B
102
}
330
18B
100
DictionaryVariables
280
     0
  1
1
  0
DICTIONARY
  5
1B2
330
3D
100
AcDbDictionary
280
     1
281
     1
  3
ACAD_XREC_ROUNDTRIP
360
1B3
  0
DICTIONARY
  5
1B0
330
3C
100
AcDbDictionary
280
     1
281
     1
  3
ACAD_XREC_ROUNDTRIP
360
1B1
  0
DICTIONARY
  5
1B4
330
3E
100
AcDbDictionary
280
     1
281
     1
  3
ACAD_XREC_ROUNDTRIP
360
1B5
  0
DICTIONARY
  5
198
330
2F
100
AcDbDictionary
280
     1
281
     1
  3
ACAD_XREC_ROUNDTRIP
360
199
  0
DICTIONARY
  5
19C
330
31
100
AcDbDictionary
280
     1
281
     1
  3
ACAD_XREC_ROUNDTRIP
360
19D
  0
DICTIONARY
  5
19A
330
30
100
AcDbDictionary
280
     1
281
     1
  3
ACAD_XREC_ROUNDTRIP
360
19B
  0
DICTIONARY
  5
19E
330
32
100
AcDbDictionary
280
     1
281
     1
  3
ACAD_XREC_ROUNDTRIP
360
19F
  0
DICTIONARY
  5
1A6
330
36
100
AcDbDictionary
280
     1
281
     1
  3
ACAD_XREC_ROUNDTRIP
360
1A7
  0
DICTIONARY
  5
1AE
330
3A
100
AcDbDictionary
280
     1
281
     1
  3
ACAD_XREC_ROUNDTRIP
360
1AF
  0
DICTIONARY
  5
1A2
330
34
100
AcDbDictionary
280
     1
281
     1
  3
ACAD_XREC_ROUNDTRIP
360
1A3
  0
DICTIONARY
  5
1A4
330
35
100
AcDbDictionary
280
     1
281
     1
  3
ACAD_XREC_ROUNDTRIP
360
1A5
  0
DICTIONARY
  5
1AC
330
39
100
AcDbDictionary
280
     1
281
     1
  3
ACAD_XREC_ROUNDTRIP
360
1AD
  0
DICTIONARY
  5
190
330
2B
100
AcDbDictionary
280
     1
281
     1
  3
ACAD_XREC_ROUNDTRIP
360
191
  0
DICTIONARY
  5
192
330
2C
100
AcDbDictionary
280
     1
281
     1
  3
ACAD_XREC_ROUNDTRIP
360
193
  0
DICTIONARY
  5
194
330
2D
100
AcDbDictionary
280
     1
281
     1
  3
ACAD_XREC_ROUNDTRIP
360
195
  0
DICTIONARY
  5
196
330
2E
100
AcDbDictionary
280
     1
281
     1
  3
ACAD_XREC_ROUNDTRIP
360
197
  0
DICTIONARY
  5
1AA
330
38
100
AcDbDictionary
280
     1
281
     1
  3
ACAD_XREC_ROUNDTRIP
360
1AB
  0
DICTIONARY
  5
1A0
330
33
100
AcDbDictionary
280
     1
281
     1
  3
ACAD_XREC_ROUNDTRIP
360
1A1
  0
DICTIONARY
  5
1A8
330
37
100
AcDbDictionary
280
     1
281
     1
  3
ACAD_XREC_ROUNDTRIP
360
1A9
  0
XRECORD
  5
1B3
102
{ACAD_REACTORS
330
1B2
102
}
330
1B2
100
AcDbXrecord
280
     1
102
MATERIAL
148
0.0
149
0.0
149
0.0
 93
        0
 94
      127
282
     0
 72
     1
 77
     1
171
     1
175
     1
179
     1
273
     0
  0
XRECORD
  5
1B1
102
{ACAD_REACTORS
330
1B0
102
}
330
1B0
100
AcDbXrecord
280
     1
102
MATERIAL
148
0.0
149
0.0
149
0.0
 93
        0
 94
      127
282
     0
 72
     1
 77
     1
171
     1
175
     1
179
     1
273
     0
  0
XRECORD
  5
1B5
102
{ACAD_REACTORS
330
1B4
102
}
330
1B4
100
AcDbXrecord
280
     1
102
MATERIAL
148
0.0
149
0.0
149
0.0
 93
        0
 94
      127
282
     0
 72
     1
 77
     1
171
     1
175
     1
179
     1
273
     0
  0
XRECORD
  5
199
102
{ACAD_REACTORS
330
198
102
}
330
198
100
AcDbXrecord
280
     1
102
RTVSPropertyOp0
 70
     1
102
RTVSPropertyOp1
 70
     1
102
RTVSPropertyOp2
 70
     1
102
RTVSPropertyOp3
 70
     1
102
RTVSPropertyOp4
 70
     1
102
RTVSPropertyOp5
 70
     1
102
RTVSPropertyOp6
 70
     1
102
RTVSPropertyOp7
 70
     1
102
RTVSPropertyOp8
 70
     1
102
RTVSPropertyOp9
 70
     1
102
RTVSPropertyOp10
 70
     1
102
RTVSPropertyOp11
 70
     1
102
RTVSPropertyOp12
 70
     1
102
RTVSPropertyOp13
 70
     1
102
RTVSPropertyOp14
 70
     1
102
RTVSPropertyOp15
 70
     1
102
RTVSPropertyOp16
 70
     1
102
RTVSPropertyOp17
 70
     1
102
RTVSPropertyOp18
 70
     1
102
RTVSPropertyOp19
 70
     1
102
RTVSPropertyOp20
 70
     1
102
RTVSPropertyOp21
 70
     1
102
RTVSPropertyOp22
 70
     1
102
RTVSPropertyOp23
 70
     1
102
RTVSPropertyOp24
 70
     1
102
RTVSPropertyOp25
 70
     1
102
RTVSPropertyOp26
 70
     1
102
RTVSPropertyOp27
 70
     1
102
RTVSPropertyOp28
 70
     1
102
RTVSPropertyOp29
 70
     1
102
RTVSPropertyOp30
 70
     1
102
RTVSPropertyOp31
 70
     1
102
RTVSPropertyOp32
 70
     1
  0
XRECORD
  5
19D
102
{ACAD_REACTORS
330
19C
102
}
330
19C
100
AcDbXrecord
280
     1
102
RTVSPropertyOp0
 70
     1
102
RTVSPropertyOp1
 70
     1
102
RTVSPropertyOp2
 70
     1
102
RTVSPropertyOp3
 70
     1
102
RTVSPropertyOp4
 70
     1
102
RTVSPropertyOp5
 70
     1
102
RTVSPropertyOp6
 70
     1
102
RTVSPropertyOp7
 70
     1
102
RTVSPropertyOp8
 70
     1
102
RTVSPropertyOp9
 70
     1
102
RTVSPropertyOp10
 70
     1
102
RTVSPropertyOp11
 70
     1
102
RTVSPropertyOp12
 70
     1
102
RTVSPropertyOp13
 70
     1
102
RTVSPropertyOp14
 70
     1
102
RTVSPropertyOp15
 70
     1
102
RTVSPropertyOp16
 70
     1
102
RTVSPropertyOp17
 70
     1
102
RTVSPropertyOp18
 70
     1
102
RTVSPropertyOp19
 70
     1
102
RTVSPropertyOp20
 70
     1
102
RTVSPropertyOp21
 70
     1
102
RTVSPropertyOp22
 70
     1
102
RTVSPropertyOp23
 70
     1
102
RTVSPropertyOp24
 70
     1
102
RTVSPropertyOp25
 70
     1
102
RTVSPropertyOp26
 70
     1
102
RTVSPropertyOp27
 70
     1
102
RTVSPropertyOp28
 70
     1
102
RTVSPropertyOp29
 70
     1
102
RTVSPropertyOp30
 70
     1
102
RTVSPropertyOp31
 70
     1
102
RTVSPropertyOp32
 70
     1
  0
XRECORD
  5
19B
102
{ACAD_REACTORS
330
19A
102
}
330
19A
100
AcDbXrecord
280
     1
102
RTVSPropertyOp0
 70
     1
102
RTVSPropertyOp1
 70
     1
102
RTVSPropertyOp2
 70
     1
102
RTVSPropertyOp3
 70
     1
102
RTVSPropertyOp4
 70
     1
102
RTVSPropertyOp5
 70
     1
102
RTVSPropertyOp6
 70
     1
102
RTVSPropertyOp7
 70
     1
102
RTVSPropertyOp8
 70
     1
102
RTVSPropertyOp9
 70
     1
102
RTVSPropertyOp10
 70
     1
102
RTVSPropertyOp11
 70
     1
102
RTVSPropertyOp12
 70
     1
102
RTVSPropertyOp13
 70
     1
102
RTVSPropertyOp14
 70
     1
102
RTVSPropertyOp15
 70
     1
102
RTVSPropertyOp16
 70
     1
102
RTVSPropertyOp17
 70
     1
102
RTVSPropertyOp18
 70
     1
102
RTVSPropertyOp19
 70
     1
102
RTVSPropertyOp20
 70
     1
102
RTVSPropertyOp21
 70
     1
102
RTVSPropertyOp22
 70
     1
102
RTVSPropertyOp23
 70
     1
102
RTVSPropertyOp24
 70
     1
102
RTVSPropertyOp25
 70
     1
102
RTVSPropertyOp26
 70
     1
102
RTVSPropertyOp27
 70
     1
102
RTVSPropertyOp28
 70
     1
102
RTVSPropertyOp29
 70
     1
102
RTVSPropertyOp30
 70
     1
102
RTVSPropertyOp31
 70
     1
102
RTVSPropertyOp32
 70
     1
  0
XRECORD
  5
19F
102
{ACAD_REACTORS
330
19E
102
}
330
19E
100
AcDbXrecord
280
     1
102
RTVSPropertyOp0
 70
     1
102
RTVSPropertyOp1
 70
     1
102
RTVSPropertyOp2
 70
     1
102
RTVSPropertyOp3
 70
     1
102
RTVSPropertyOp4
 70
     1
102
RTVSPropertyOp5
 70
     1
102
RTVSPropertyOp6
 70
     1
102
RTVSPropertyOp7
 70
     1
102
RTVSPropertyOp8
 70
     1
102
RTVSPropertyOp9
 70
     1
102
RTVSPropertyOp10
 70
     1
102
RTVSPropertyOp11
 70
     1
102
RTVSPropertyOp12
 70
     1
102
RTVSPropertyOp13
 70
     1
102
RTVSPropertyOp14
 70
     1
102
RTVSPropertyOp15
 70
     1
102
RTVSPropertyOp16
 70
     1
102
RTVSPropertyOp17
 70
     1
102
RTVSPropertyOp18
 70
     1
102
RTVSPropertyOp19
 70
     1
102
RTVSPropertyOp20
 70
     1
102
RTVSPropertyOp21
 70
     1
102
RTVSPropertyOp22
 70
     1
102
RTVSPropertyOp23
 70
     1
102
RTVSPropertyOp24
 70
     1
102
RTVSPropertyOp25
 70
     1
102
RTVSPropertyOp26
 70
     1
102
RTVSPropertyOp27
 70
     1
102
RTVSPropertyOp28
 70
     1
102
RTVSPropertyOp29
 70
     1
102
RTVSPropertyOp30
 70
     1
102
RTVSPropertyOp31
 70
     1
102
RTVSPropertyOp32
 70
     1
  0
XRECORD
  5
1A7
102
{ACAD_REACTORS
330
1A6
102
}
330
1A6
100
AcDbXrecord
280
     1
102
RTVSPropertyOp0
 70
     1
102
RTVSPropertyOp1
 70
     1
102
RTVSPropertyOp2
 70
     1
102
RTVSPropertyOp3
 70
     1
102
RTVSPropertyOp4
 70
     1
102
RTVSPropertyOp5
 70
     1
102
RTVSPropertyOp6
 70
     1
102
RTVSPropertyOp7
 70
     1
102
RTVSPropertyOp8
 70
     1
102
RTVSPropertyOp9
 70
     1
102
RTVSPropertyOp10
 70
     1
102
RTVSPropertyOp11
 70
     1
102
RTVSPropertyOp12
 70
     1
102
RTVSPropertyOp13
 70
     1
102
RTVSPropertyOp14
 70
     1
102
RTVSPropertyOp15
 70
     1
102
RTVSPropertyOp16
 70
     1
102
RTVSPropertyOp17
 70
     1
102
RTVSPropertyOp18
 70
     1
102
RTVSPropertyOp19
 70
     1
102
RTVSPropertyOp20
 70
     1
102
RTVSPropertyOp21
 70
     1
102
RTVSPropertyOp22
 70
     1
102
RTVSPropertyOp23
 70
     1
102
RTVSPropertyOp24
 70
     1
102
RTVSPropertyOp25
 70
     1
102
RTVSPropertyOp26
 70
     1
102
RTVSPropertyOp27
 70
     1
102
RTVSPropertyOp28
 70
     1
102
RTVSPropertyOp29
 70
     1
102
RTVSPropertyOp30
 70
     1
102
RTVSPropertyOp31
 70
     1
102
RTVSPropertyOp32
 70
     1
  0
XRECORD
  5
1AF
102
{ACAD_REACTORS
330
1AE
102
}
330
1AE
100
AcDbXrecord
280
     1
102
RTVSPropertyOp0
 70
     1
102
RTVSPropertyOp1
 70
     1
102
RTVSPropertyOp2
 70
     1
102
RTVSPropertyOp3
 70
     1
102
RTVSPropertyOp4
 70
     1
102
RTVSPropertyOp5
 70
     1
102
RTVSPropertyOp6
 70
     1
102
RTVSPropertyOp7
 70
     1
102
RTVSPropertyOp8
 70
     1
102
RTVSPropertyOp9
 70
     1
102
RTVSPropertyOp10
 70
     1
102
RTVSPropertyOp11
 70
     1
102
RTVSPropertyOp12
 70
     1
102
RTVSPropertyOp13
 70
     1
102
RTVSPropertyOp14
 70
     1
102
RTVSPropertyOp15
 70
     1
102
RTVSPropertyOp16
 70
     1
102
RTVSPropertyOp17
 70
     1
102
RTVSPropertyOp18
 70
     1
102
RTVSPropertyOp19
 70
     1
102
RTVSPropertyOp20
 70
     1
102
RTVSPropertyOp21
 70
     1
102
RTVSPropertyOp22
 70
     1
102
RTVSPropertyOp23
 70
     1
102
RTVSPropertyOp24
 70
     1
102
RTVSPropertyOp25
 70
     1
102
RTVSPropertyOp26
 70
     1
102
RTVSPropertyOp27
 70
     1
102
RTVSPropertyOp28
 70
     1
102
RTVSPropertyOp29
 70
     1
102
RTVSPropertyOp30
 70
     1
102
RTVSPropertyOp31
 70
     1
102
RTVSPropertyOp32
 70
     1
  0
XRECORD
  5
1A3
102
{ACAD_REACTORS
330
1A2
102
}
330
1A2
100
AcDbXrecord
280
     1
102
RTVSPropertyOp0
 70
     1
102
RTVSPropertyOp1
 70
     1
102
RTVSPropertyOp2
 70
     1
102
RTVSPropertyOp3
 70
     1
102
RTVSPropertyOp4
 70
     1
102
RTVSPropertyOp5
 70
     1
102
RTVSPropertyOp6
 70
     1
102
RTVSPropertyOp7
 70
     1
102
RTVSPropertyOp8
 70
     1
102
RTVSPropertyOp9
 70
     1
102
RTVSPropertyOp10
 70
     1
102
RTVSPropertyOp11
 70
     1
102
RTVSPropertyOp12
 70
     1
102
RTVSPropertyOp13
 70
     1
102
RTVSPropertyOp14
 70
     1
102
RTVSPropertyOp15
 70
     1
102
RTVSPropertyOp16
 70
     1
102
RTVSPropertyOp17
 70
     1
102
RTVSPropertyOp18
 70
     1
102
RTVSPropertyOp19
 70
     1
102
RTVSPropertyOp20
 70
     1
102
RTVSPropertyOp21
 70
     1
102
RTVSPropertyOp22
 70
     1
102
RTVSPropertyOp23
 70
     1
102
RTVSPropertyOp24
 70
     1
102
RTVSPropertyOp25
 70
     1
102
RTVSPropertyOp26
 70
     1
102
RTVSPropertyOp27
 70
     1
102
RTVSPropertyOp28
 70
     1
102
RTVSPropertyOp29
 70
     1
102
RTVSPropertyOp30
 70
     1
102
RTVSPropertyOp31
 70
     1
102
RTVSPropertyOp32
 70
     1
  0
XRECORD
  5
1A5
102
{ACAD_REACTORS
330
1A4
102
}
330
1A4
100
AcDbXrecord
280
     1
102
RTVSPropertyOp0
 70
     1
102
RTVSPropertyOp1
 70
     1
102
RTVSPropertyOp2
 70
     1
102
RTVSPropertyOp3
 70
     1
102
RTVSPropertyOp4
 70
     1
102
RTVSPropertyOp5
 70
     1
102
RTVSPropertyOp6
 70
     1
102
RTVSPropertyOp7
 70
     1
102
RTVSPropertyOp8
 70
     1
102
RTVSPropertyOp9
 70
     1
102
RTVSPropertyOp10
 70
     1
102
RTVSPropertyOp11
 70
     1
102
RTVSPropertyOp12
 70
     1
102
RTVSPropertyOp13
 70
     1
102
RTVSPropertyOp14
 70
     1
102
RTVSPropertyOp15
 70
     1
102
RTVSPropertyOp16
 70
     1
102
RTVSPropertyOp17
 70
     1
102
RTVSPropertyOp18
 70
     1
102
RTVSPropertyOp19
 70
     1
102
RTVSPropertyOp20
 70
     1
102
RTVSPropertyOp21
 70
     1
102
RTVSPropertyOp22
 70
     1
102
RTVSPropertyOp23
 70
     1
102
RTVSPropertyOp24
 70
     1
102
RTVSPropertyOp25
 70
     1
102
RTVSPropertyOp26
 70
     1
102
RTVSPropertyOp27
 70
     1
102
RTVSPropertyOp28
 70
     1
102
RTVSPropertyOp29
 70
     1
102
RTVSPropertyOp30
 70
     1
102
RTVSPropertyOp31
 70
     1
102
RTVSPropertyOp32
 70
     1
  0
XRECORD
  5
1AD
102
{ACAD_REACTORS
330
1AC
102
}
330
1AC
100
AcDbXrecord
280
     1
102
RTVSPropertyOp0
 70
     1
102
RTVSPropertyOp1
 70
     1
102
RTVSPropertyOp2
 70
     1
102
RTVSPropertyOp3
 70
     1
102
RTVSPropertyOp4
 70
     1
102
RTVSPropertyOp5
 70
     1
102
RTVSPropertyOp6
 70
     1
102
RTVSPropertyOp7
 70
     1
102
RTVSPropertyOp8
 70
     1
102
RTVSPropertyOp9
 70
     1
102
RTVSPropertyOp10
 70
     1
102
RTVSPropertyOp11
 70
     1
102
RTVSPropertyOp12
 70
     1
102
RTVSPropertyOp13
 70
     1
102
RTVSPropertyOp14
 70
     1
102
RTVSPropertyOp15
 70
     1
102
RTVSPropertyOp16
 70
     1
102
RTVSPropertyOp17
 70
     1
102
RTVSPropertyOp18
 70
     1
102
RTVSPropertyOp19
 70
     1
102
RTVSPropertyOp20
 70
     1
102
RTVSPropertyOp21
 70
     1
102
RTVSPropertyOp22
 70
     1
102
RTVSPropertyOp23
 70
     1
102
RTVSPropertyOp24
 70
     1
102
RTVSPropertyOp25
 70
     1
102
RTVSPropertyOp26
 70
     1
102
RTVSPropertyOp27
 70
     1
102
RTVSPropertyOp28
 70
     1
102
RTVSPropertyOp29
 70
     1
102
RTVSPropertyOp30
 70
     1
102
RTVSPropertyOp31
 70
     1
102
RTVSPropertyOp32
 70
     1
  0
XRECORD
  5
191
102
{ACAD_REACTORS
330
190
102
}
330
190
100
AcDbXrecord
280
     1
102
RTVSPropertyOp0
 70
     1
102
RTVSPropertyOp1
 70
     1
102
RTVSPropertyOp2
 70
     1
102
RTVSPropertyOp3
 70
     1
102
RTVSPropertyOp4
 70
     1
102
RTVSPropertyOp5
 70
     1
102
RTVSPropertyOp6
 70
     1
102
RTVSPropertyOp7
 70
     1
102
RTVSPropertyOp8
 70
     1
102
RTVSPropertyOp9
 70
     1
102
RTVSPropertyOp10
 70
     1
102
RTVSPropertyOp11
 70
     1
102
RTVSPropertyOp12
 70
     1
102
RTVSPropertyOp13
 70
     1
102
RTVSPropertyOp14
 70
     1
102
RTVSPropertyOp15
 70
     1
102
RTVSPropertyOp16
 70
     1
102
RTVSPropertyOp17
 70
     1
102
RTVSPropertyOp18
 70
     1
102
RTVSPropertyOp19
 70
     1
102
RTVSPropertyOp20
 70
     1
102
RTVSPropertyOp21
 70
     1
102
RTVSPropertyOp22
 70
     1
102
RTVSPropertyOp23
 70
     1
102
RTVSPropertyOp24
 70
     1
102
RTVSPropertyOp25
 70
     1
102
RTVSPropertyOp26
 70
     1
102
RTVSPropertyOp27
 70
     1
102
RTVSPropertyOp28
 70
     1
102
RTVSPropertyOp29
 70
     1
102
RTVSPropertyOp30
 70
     1
102
RTVSPropertyOp31
 70
     1
102
RTVSPropertyOp32
 70
     1
  0
XRECORD
  5
193
102
{ACAD_REACTORS
330
192
102
}
330
192
100
AcDbXrecord
280
     1
102
RTVSPropertyOp0
 70
     1
102
RTVSPropertyOp1
 70
     1
102
RTVSPropertyOp2
 70
     1
102
RTVSPropertyOp3
 70
     1
102
RTVSPropertyOp4
 70
     1
102
RTVSPropertyOp5
 70
     1
102
RTVSPropertyOp6
 70
     1
102
RTVSPropertyOp7
 70
     1
102
RTVSPropertyOp8
 70
     1
102
RTVSPropertyOp9
 70
     1
102
RTVSPropertyOp10
 70
     1
102
RTVSPropertyOp11
 70
     1
102
RTVSPropertyOp12
 70
     1
102
RTVSPropertyOp13
 70
     1
102
RTVSPropertyOp14
 70
     1
102
RTVSPropertyOp15
 70
     1
102
RTVSPropertyOp16
 70
     1
102
RTVSPropertyOp17
 70
     1
102
RTVSPropertyOp18
 70
     1
102
RTVSPropertyOp19
 70
     1
102
RTVSPropertyOp20
 70
     1
102
RTVSPropertyOp21
 70
     1
102
RTVSPropertyOp22
 70
     1
102
RTVSPropertyOp23
 70
     1
102
RTVSPropertyOp24
 70
     1
102
RTVSPropertyOp25
 70
     1
102
RTVSPropertyOp26
 70
     1
102
RTVSPropertyOp27
 70
     1
102
RTVSPropertyOp28
 70
     1
102
RTVSPropertyOp29
 70
     1
102
RTVSPropertyOp30
 70
     1
102
RTVSPropertyOp31
 70
     1
102
RTVSPropertyOp32
 70
     1
  0
XRECORD
  5
195
102
{ACAD_REACTORS
330
194
102
}
330
194
100
AcDbXrecord
280
     1
102
RTVSPropertyOp0
 70
     1
102
RTVSPropertyOp1
 70
     1
102
RTVSPropertyOp2
 70
     1
102
RTVSPropertyOp3
 70
     1
102
RTVSPropertyOp4
 70
     1
102
RTVSPropertyOp5
 70
     1
102
RTVSPropertyOp6
 70
     1
102
RTVSPropertyOp7
 70
     1
102
RTVSPropertyOp8
 70
     1
102
RTVSPropertyOp9
 70
     1
102
RTVSPropertyOp10
 70
     1
102
RTVSPropertyOp11
 70
     1
102
RTVSPropertyOp12
 70
     1
102
RTVSPropertyOp13
 70
     1
102
RTVSPropertyOp14
 70
     1
102
RTVSPropertyOp15
 70
     1
102
RTVSPropertyOp16
 70
     1
102
RTVSPropertyOp17
 70
     1
102
RTVSPropertyOp18
 70
     1
102
RTVSPropertyOp19
 70
     1
102
RTVSPropertyOp20
 70
     1
102
RTVSPropertyOp21
 70
     1
102
RTVSPropertyOp22
 70
     1
102
RTVSPropertyOp23
 70
     1
102
RTVSPropertyOp24
 70
     1
102
RTVSPropertyOp25
 70
     1
102
RTVSPropertyOp26
 70
     1
102
RTVSPropertyOp27
 70
     1
102
RTVSPropertyOp28
 70
     1
102
RTVSPropertyOp29
 70
     1
102
RTVSPropertyOp30
 70
     1
102
RTVSPropertyOp31
 70
     1
102
RTVSPropertyOp32
 70
     1
  0
XRECORD
  5
197
102
{ACAD_REACTORS
330
196
102
}
330
196
100
AcDbXrecord
280
     1
102
RTVSPropertyOp0
 70
     1
102
RTVSPropertyOp1
 70
     1
102
RTVSPropertyOp2
 70
     1
102
RTVSPropertyOp3
 70
     1
102
RTVSPropertyOp4
 70
     1
102
RTVSPropertyOp5
 70
     1
102
RTVSPropertyOp6
 70
     1
102
RTVSPropertyOp7
 70
     1
102
RTVSPropertyOp8
 70
     1
102
RTVSPropertyOp9
 70
     1
102
RTVSPropertyOp10
 70
     1
102
RTVSPropertyOp11
 70
     1
102
RTVSPropertyOp12
 70
     1
102
RTVSPropertyOp13
 70
     1
102
RTVSPropertyOp14
 70
     1
102
RTVSPropertyOp15
 70
     1
102
RTVSPropertyOp16
 70
     1
102
RTVSPropertyOp17
 70
     1
102
RTVSPropertyOp18
 70
     1
102
RTVSPropertyOp19
 70
     1
102
RTVSPropertyOp20
 70
     1
102
RTVSPropertyOp21
 70
     1
102
RTVSPropertyOp22
 70
     1
102
RTVSPropertyOp23
 70
     1
102
RTVSPropertyOp24
 70
     1
102
RTVSPropertyOp25
 70
     1
102
RTVSPropertyOp26
 70
     1
102
RTVSPropertyOp27
 70
     1
102
RTVSPropertyOp28
 70
     1
102
RTVSPropertyOp29
 70
     1
102
RTVSPropertyOp30
 70
     1
102
RTVSPropertyOp31
 70
     1
102
RTVSPropertyOp32
 70
     1
  0
XRECORD
  5
1AB
102
{ACAD_REACTORS
330
1AA
102
}
330
1AA
100
AcDbXrecord
280
     1
102
RTVSPropertyOp0
 70
     1
102
RTVSPropertyOp1
 70
     1
102
RTVSPropertyOp2
 70
     1
102
RTVSPropertyOp3
 70
     1
102
RTVSPropertyOp4
 70
     1
102
RTVSPropertyOp5
 70
     1
102
RTVSPropertyOp6
 70
     1
102
RTVSPropertyOp7
 70
     1
102
RTVSPropertyOp8
 70
     1
102
RTVSPropertyOp9
 70
     1
102
RTVSPropertyOp10
 70
     1
102
RTVSPropertyOp11
 70
     1
102
RTVSPropertyOp12
 70
     1
102
RTVSPropertyOp13
 70
     1
102
RTVSPropertyOp14
 70
     1
102
RTVSPropertyOp15
 70
     1
102
RTVSPropertyOp16
 70
     1
102
RTVSPropertyOp17
 70
     1
102
RTVSPropertyOp18
 70
     1
102
RTVSPropertyOp19
 70
     1
102
RTVSPropertyOp20
 70
     1
102
RTVSPropertyOp21
 70
     1
102
RTVSPropertyOp22
 70
     1
102
RTVSPropertyOp23
 70
     1
102
RTVSPropertyOp24
 70
     1
102
RTVSPropertyOp25
 70
     1
102
RTVSPropertyOp26
 70
     1
102
RTVSPropertyOp27
 70
     1
102
RTVSPropertyOp28
 70
     1
102
RTVSPropertyOp29
 70
     1
102
RTVSPropertyOp30
 70
     1
102
RTVSPropertyOp31
 70
     1
102
RTVSPropertyOp32
 70
     1
  0
XRECORD
  5
1A1
102
{ACAD_REACTORS
330
1A0
102
}
330
1A0
100
AcDbXrecord
280
     1
102
RTVSPropertyOp0
 70
     1
102
RTVSPropertyOp1
 70
     1
102
RTVSPropertyOp2
 70
     1
102
RTVSPropertyOp3
 70
     1
102
RTVSPropertyOp4
 70
     1
102
RTVSPropertyOp5
 70
     1
102
RTVSPropertyOp6
 70
     1
102
RTVSPropertyOp7
 70
     1
102
RTVSPropertyOp8
 70
     1
102
RTVSPropertyOp9
 70
     1
102
RTVSPropertyOp10
 70
     1
102
RTVSPropertyOp11
 70
     1
102
RTVSPropertyOp12
 70
     1
102
RTVSPropertyOp13
 70
     1
102
RTVSPropertyOp14
 70
     1
102
RTVSPropertyOp15
 70
     1
102
RTVSPropertyOp16
 70
     1
102
RTVSPropertyOp17
 70
     1
102
RTVSPropertyOp18
 70
     1
102
RTVSPropertyOp19
 70
     1
102
RTVSPropertyOp20
 70
     1
102
RTVSPropertyOp21
 70
     1
102
RTVSPropertyOp22
 70
     1
102
RTVSPropertyOp23
 70
     1
102
RTVSPropertyOp24
 70
     1
102
RTVSPropertyOp25
 70
     1
102
RTVSPropertyOp26
 70
     1
102
RTVSPropertyOp27
 70
     1
102
RTVSPropertyOp28
 70
     1
102
RTVSPropertyOp29
 70
     1
102
RTVSPropertyOp30
 70
     1
102
RTVSPropertyOp31
 70
     1
102
RTVSPropertyOp32
 70
     1
  0
XRECORD
  5
1A9
102
{ACAD_REACTORS
330
1A8
102
}
330
1A8
100
AcDbXrecord
280
     1
102
RTVSPropertyOp0
 70
     1
102
RTVSPropertyOp1
 70
     1
102
RTVSPropertyOp2
 70
     1
102
RTVSPropertyOp3
 70
     1
102
RTVSPropertyOp4
 70
     1
102
RTVSPropertyOp5
 70
     1
102
RTVSPropertyOp6
 70
     1
102
RTVSPropertyOp7
 70
     1
102
RTVSPropertyOp8
 70
     1
102
RTVSPropertyOp9
 70
     1
102
RTVSPropertyOp10
 70
     1
102
RTVSPropertyOp11
 70
     1
102
RTVSPropertyOp12
 70
     1
102
RTVSPropertyOp13
 70
     1
102
RTVSPropertyOp14
 70
     1
102
RTVSPropertyOp15
 70
     1
102
RTVSPropertyOp16
 70
     1
102
RTVSPropertyOp17
 70
     1
102
RTVSPropertyOp18
 70
     1
102
RTVSPropertyOp19
 70
     1
102
RTVSPropertyOp20
 70
     1
102
RTVSPropertyOp21
 70
     1
102
RTVSPropertyOp22
 70
     1
102
RTVSPropertyOp23
 70
     1
102
RTVSPropertyOp24
 70
     1
102
RTVSPropertyOp25
 70
     1
102
RTVSPropertyOp26
 70
     1
102
RTVSPropertyOp27
 70
     1
102
RTVSPropertyOp28
 70
     1
102
RTVSPropertyOp29
 70
     1
102
RTVSPropertyOp30
 70
     1
102
RTVSPropertyOp31
 70
     1
102
RTVSPropertyOp32
 70
     1
  0
ENDSEC
  0
EOF
